<?xml version="1.0" standalone="no"?> 
<!DOCTYPE svg PUBLIC "-//W3C//DTD SVG 1.1//EN" "http://www.w3.org/Graphics/SVG/1.1/DTD/svg11.dtd" >
<svg xmlns="http://www.w3.org/2000/svg">
<defs>
  <font id="text-security-circle" horiz-adv-x="200">
    <font-face font-family="text-security-circle"
      units-per-em="400" ascent="400"
      descent="0" />
    <missing-glyph horiz-adv-x="0" />
    <glyph glyph-name="circle"
      unicode="&#x0;"
      horiz-adv-x="200" d=" M100 200M50 200A50 50 0 1 1 150 200A50 50 0 1 1 50 200M100 200M140 200A40 40 0 1 0 60 200A40 40 0 1 0 140 200" />
    <glyph glyph-name="circle-1"
      unicode="&#x1;"
      horiz-adv-x="200" d=" M100 200M50 200A50 50 0 1 1 150 200A50 50 0 1 1 50 200M100 200M140 200A40 40 0 1 0 60 200A40 40 0 1 0 140 200" />
    <glyph glyph-name="circle-2"
      unicode="&#x2;"
      horiz-adv-x="200" d=" M100 200M50 200A50 50 0 1 1 150 200A50 50 0 1 1 50 200M100 200M140 200A40 40 0 1 0 60 200A40 40 0 1 0 140 200" />
    <glyph glyph-name="circle-3"
      unicode="&#x3;"
      horiz-adv-x="200" d=" M100 200M50 200A50 50 0 1 1 150 200A50 50 0 1 1 50 200M100 200M140 200A40 40 0 1 0 60 200A40 40 0 1 0 140 200" />
    <glyph glyph-name="circle-4"
      unicode="&#x4;"
      horiz-adv-x="200" d=" M100 200M50 200A50 50 0 1 1 150 200A50 50 0 1 1 50 200M100 200M140 200A40 40 0 1 0 60 200A40 40 0 1 0 140 200" />
    <glyph glyph-name="circle-5"
      unicode="&#x5;"
      horiz-adv-x="200" d=" M100 200M50 200A50 50 0 1 1 150 200A50 50 0 1 1 50 200M100 200M140 200A40 40 0 1 0 60 200A40 40 0 1 0 140 200" />
    <glyph glyph-name="circle-6"
      unicode="&#x6;"
      horiz-adv-x="200" d=" M100 200M50 200A50 50 0 1 1 150 200A50 50 0 1 1 50 200M100 200M140 200A40 40 0 1 0 60 200A40 40 0 1 0 140 200" />
    <glyph glyph-name="circle-7"
      unicode="&#x7;"
      horiz-adv-x="200" d=" M100 200M50 200A50 50 0 1 1 150 200A50 50 0 1 1 50 200M100 200M140 200A40 40 0 1 0 60 200A40 40 0 1 0 140 200" />
    <glyph glyph-name="circle-8"
      unicode="&#x8;"
      horiz-adv-x="200" d=" M100 200M50 200A50 50 0 1 1 150 200A50 50 0 1 1 50 200M100 200M140 200A40 40 0 1 0 60 200A40 40 0 1 0 140 200" />
    <glyph glyph-name="circle-9"
      unicode="&#x9;"
      horiz-adv-x="200" d=" M100 200M50 200A50 50 0 1 1 150 200A50 50 0 1 1 50 200M100 200M140 200A40 40 0 1 0 60 200A40 40 0 1 0 140 200" />
    <glyph glyph-name="circle-10"
      unicode="&#xA;"
      horiz-adv-x="200" d=" M100 200M50 200A50 50 0 1 1 150 200A50 50 0 1 1 50 200M100 200M140 200A40 40 0 1 0 60 200A40 40 0 1 0 140 200" />
    <glyph glyph-name="circle-11"
      unicode="&#xB;"
      horiz-adv-x="200" d=" M100 200M50 200A50 50 0 1 1 150 200A50 50 0 1 1 50 200M100 200M140 200A40 40 0 1 0 60 200A40 40 0 1 0 140 200" />
    <glyph glyph-name="circle-12"
      unicode="&#xC;"
      horiz-adv-x="200" d=" M100 200M50 200A50 50 0 1 1 150 200A50 50 0 1 1 50 200M100 200M140 200A40 40 0 1 0 60 200A40 40 0 1 0 140 200" />
    <glyph glyph-name="circle-13"
      unicode="&#xD;"
      horiz-adv-x="200" d=" M100 200M50 200A50 50 0 1 1 150 200A50 50 0 1 1 50 200M100 200M140 200A40 40 0 1 0 60 200A40 40 0 1 0 140 200" />
    <glyph glyph-name="circle-14"
      unicode="&#xE;"
      horiz-adv-x="200" d=" M100 200M50 200A50 50 0 1 1 150 200A50 50 0 1 1 50 200M100 200M140 200A40 40 0 1 0 60 200A40 40 0 1 0 140 200" />
    <glyph glyph-name="circle-15"
      unicode="&#xF;"
      horiz-adv-x="200" d=" M100 200M50 200A50 50 0 1 1 150 200A50 50 0 1 1 50 200M100 200M140 200A40 40 0 1 0 60 200A40 40 0 1 0 140 200" />
    <glyph glyph-name="circle-16"
      unicode="&#x10;"
      horiz-adv-x="200" d=" M100 200M50 200A50 50 0 1 1 150 200A50 50 0 1 1 50 200M100 200M140 200A40 40 0 1 0 60 200A40 40 0 1 0 140 200" />
    <glyph glyph-name="circle-17"
      unicode="&#x11;"
      horiz-adv-x="200" d=" M100 200M50 200A50 50 0 1 1 150 200A50 50 0 1 1 50 200M100 200M140 200A40 40 0 1 0 60 200A40 40 0 1 0 140 200" />
    <glyph glyph-name="circle-18"
      unicode="&#x12;"
      horiz-adv-x="200" d=" M100 200M50 200A50 50 0 1 1 150 200A50 50 0 1 1 50 200M100 200M140 200A40 40 0 1 0 60 200A40 40 0 1 0 140 200" />
    <glyph glyph-name="circle-19"
      unicode="&#x13;"
      horiz-adv-x="200" d=" M100 200M50 200A50 50 0 1 1 150 200A50 50 0 1 1 50 200M100 200M140 200A40 40 0 1 0 60 200A40 40 0 1 0 140 200" />
    <glyph glyph-name="circle-20"
      unicode="&#x14;"
      horiz-adv-x="200" d=" M100 200M50 200A50 50 0 1 1 150 200A50 50 0 1 1 50 200M100 200M140 200A40 40 0 1 0 60 200A40 40 0 1 0 140 200" />
    <glyph glyph-name="circle-21"
      unicode="&#x15;"
      horiz-adv-x="200" d=" M100 200M50 200A50 50 0 1 1 150 200A50 50 0 1 1 50 200M100 200M140 200A40 40 0 1 0 60 200A40 40 0 1 0 140 200" />
    <glyph glyph-name="circle-22"
      unicode="&#x16;"
      horiz-adv-x="200" d=" M100 200M50 200A50 50 0 1 1 150 200A50 50 0 1 1 50 200M100 200M140 200A40 40 0 1 0 60 200A40 40 0 1 0 140 200" />
    <glyph glyph-name="circle-23"
      unicode="&#x17;"
      horiz-adv-x="200" d=" M100 200M50 200A50 50 0 1 1 150 200A50 50 0 1 1 50 200M100 200M140 200A40 40 0 1 0 60 200A40 40 0 1 0 140 200" />
    <glyph glyph-name="circle-24"
      unicode="&#x18;"
      horiz-adv-x="200" d=" M100 200M50 200A50 50 0 1 1 150 200A50 50 0 1 1 50 200M100 200M140 200A40 40 0 1 0 60 200A40 40 0 1 0 140 200" />
    <glyph glyph-name="circle-25"
      unicode="&#x19;"
      horiz-adv-x="200" d=" M100 200M50 200A50 50 0 1 1 150 200A50 50 0 1 1 50 200M100 200M140 200A40 40 0 1 0 60 200A40 40 0 1 0 140 200" />
    <glyph glyph-name="circle-26"
      unicode="&#x1A;"
      horiz-adv-x="200" d=" M100 200M50 200A50 50 0 1 1 150 200A50 50 0 1 1 50 200M100 200M140 200A40 40 0 1 0 60 200A40 40 0 1 0 140 200" />
    <glyph glyph-name="circle-27"
      unicode="&#x1B;"
      horiz-adv-x="200" d=" M100 200M50 200A50 50 0 1 1 150 200A50 50 0 1 1 50 200M100 200M140 200A40 40 0 1 0 60 200A40 40 0 1 0 140 200" />
    <glyph glyph-name="circle-28"
      unicode="&#x1C;"
      horiz-adv-x="200" d=" M100 200M50 200A50 50 0 1 1 150 200A50 50 0 1 1 50 200M100 200M140 200A40 40 0 1 0 60 200A40 40 0 1 0 140 200" />
    <glyph glyph-name="circle-29"
      unicode="&#x1D;"
      horiz-adv-x="200" d=" M100 200M50 200A50 50 0 1 1 150 200A50 50 0 1 1 50 200M100 200M140 200A40 40 0 1 0 60 200A40 40 0 1 0 140 200" />
    <glyph glyph-name="circle-30"
      unicode="&#x1E;"
      horiz-adv-x="200" d=" M100 200M50 200A50 50 0 1 1 150 200A50 50 0 1 1 50 200M100 200M140 200A40 40 0 1 0 60 200A40 40 0 1 0 140 200" />
    <glyph glyph-name="circle-31"
      unicode="&#x1F;"
      horiz-adv-x="200" d=" M100 200M50 200A50 50 0 1 1 150 200A50 50 0 1 1 50 200M100 200M140 200A40 40 0 1 0 60 200A40 40 0 1 0 140 200" />
    <glyph glyph-name="circle-32"
      unicode="&#x20;"
      horiz-adv-x="200" d=" M100 200M50 200A50 50 0 1 1 150 200A50 50 0 1 1 50 200M100 200M140 200A40 40 0 1 0 60 200A40 40 0 1 0 140 200" />
    <glyph glyph-name="circle-33"
      unicode="&#x21;"
      horiz-adv-x="200" d=" M100 200M50 200A50 50 0 1 1 150 200A50 50 0 1 1 50 200M100 200M140 200A40 40 0 1 0 60 200A40 40 0 1 0 140 200" />
    <glyph glyph-name="circle-34"
      unicode="&#x22;"
      horiz-adv-x="200" d=" M100 200M50 200A50 50 0 1 1 150 200A50 50 0 1 1 50 200M100 200M140 200A40 40 0 1 0 60 200A40 40 0 1 0 140 200" />
    <glyph glyph-name="circle-35"
      unicode="&#x23;"
      horiz-adv-x="200" d=" M100 200M50 200A50 50 0 1 1 150 200A50 50 0 1 1 50 200M100 200M140 200A40 40 0 1 0 60 200A40 40 0 1 0 140 200" />
    <glyph glyph-name="circle-36"
      unicode="&#x24;"
      horiz-adv-x="200" d=" M100 200M50 200A50 50 0 1 1 150 200A50 50 0 1 1 50 200M100 200M140 200A40 40 0 1 0 60 200A40 40 0 1 0 140 200" />
    <glyph glyph-name="circle-37"
      unicode="&#x25;"
      horiz-adv-x="200" d=" M100 200M50 200A50 50 0 1 1 150 200A50 50 0 1 1 50 200M100 200M140 200A40 40 0 1 0 60 200A40 40 0 1 0 140 200" />
    <glyph glyph-name="circle-38"
      unicode="&#x26;"
      horiz-adv-x="200" d=" M100 200M50 200A50 50 0 1 1 150 200A50 50 0 1 1 50 200M100 200M140 200A40 40 0 1 0 60 200A40 40 0 1 0 140 200" />
    <glyph glyph-name="circle-39"
      unicode="&#x27;"
      horiz-adv-x="200" d=" M100 200M50 200A50 50 0 1 1 150 200A50 50 0 1 1 50 200M100 200M140 200A40 40 0 1 0 60 200A40 40 0 1 0 140 200" />
    <glyph glyph-name="circle-40"
      unicode="&#x28;"
      horiz-adv-x="200" d=" M100 200M50 200A50 50 0 1 1 150 200A50 50 0 1 1 50 200M100 200M140 200A40 40 0 1 0 60 200A40 40 0 1 0 140 200" />
    <glyph glyph-name="circle-41"
      unicode="&#x29;"
      horiz-adv-x="200" d=" M100 200M50 200A50 50 0 1 1 150 200A50 50 0 1 1 50 200M100 200M140 200A40 40 0 1 0 60 200A40 40 0 1 0 140 200" />
    <glyph glyph-name="circle-42"
      unicode="&#x2A;"
      horiz-adv-x="200" d=" M100 200M50 200A50 50 0 1 1 150 200A50 50 0 1 1 50 200M100 200M140 200A40 40 0 1 0 60 200A40 40 0 1 0 140 200" />
    <glyph glyph-name="circle-43"
      unicode="&#x2B;"
      horiz-adv-x="200" d=" M100 200M50 200A50 50 0 1 1 150 200A50 50 0 1 1 50 200M100 200M140 200A40 40 0 1 0 60 200A40 40 0 1 0 140 200" />
    <glyph glyph-name="circle-44"
      unicode="&#x2C;"
      horiz-adv-x="200" d=" M100 200M50 200A50 50 0 1 1 150 200A50 50 0 1 1 50 200M100 200M140 200A40 40 0 1 0 60 200A40 40 0 1 0 140 200" />
    <glyph glyph-name="circle-45"
      unicode="&#x2D;"
      horiz-adv-x="200" d=" M100 200M50 200A50 50 0 1 1 150 200A50 50 0 1 1 50 200M100 200M140 200A40 40 0 1 0 60 200A40 40 0 1 0 140 200" />
    <glyph glyph-name="circle-46"
      unicode="&#x2E;"
      horiz-adv-x="200" d=" M100 200M50 200A50 50 0 1 1 150 200A50 50 0 1 1 50 200M100 200M140 200A40 40 0 1 0 60 200A40 40 0 1 0 140 200" />
    <glyph glyph-name="circle-47"
      unicode="&#x2F;"
      horiz-adv-x="200" d=" M100 200M50 200A50 50 0 1 1 150 200A50 50 0 1 1 50 200M100 200M140 200A40 40 0 1 0 60 200A40 40 0 1 0 140 200" />
    <glyph glyph-name="circle-48"
      unicode="&#x30;"
      horiz-adv-x="200" d=" M100 200M50 200A50 50 0 1 1 150 200A50 50 0 1 1 50 200M100 200M140 200A40 40 0 1 0 60 200A40 40 0 1 0 140 200" />
    <glyph glyph-name="circle-49"
      unicode="&#x31;"
      horiz-adv-x="200" d=" M100 200M50 200A50 50 0 1 1 150 200A50 50 0 1 1 50 200M100 200M140 200A40 40 0 1 0 60 200A40 40 0 1 0 140 200" />
    <glyph glyph-name="circle-50"
      unicode="&#x32;"
      horiz-adv-x="200" d=" M100 200M50 200A50 50 0 1 1 150 200A50 50 0 1 1 50 200M100 200M140 200A40 40 0 1 0 60 200A40 40 0 1 0 140 200" />
    <glyph glyph-name="circle-51"
      unicode="&#x33;"
      horiz-adv-x="200" d=" M100 200M50 200A50 50 0 1 1 150 200A50 50 0 1 1 50 200M100 200M140 200A40 40 0 1 0 60 200A40 40 0 1 0 140 200" />
    <glyph glyph-name="circle-52"
      unicode="&#x34;"
      horiz-adv-x="200" d=" M100 200M50 200A50 50 0 1 1 150 200A50 50 0 1 1 50 200M100 200M140 200A40 40 0 1 0 60 200A40 40 0 1 0 140 200" />
    <glyph glyph-name="circle-53"
      unicode="&#x35;"
      horiz-adv-x="200" d=" M100 200M50 200A50 50 0 1 1 150 200A50 50 0 1 1 50 200M100 200M140 200A40 40 0 1 0 60 200A40 40 0 1 0 140 200" />
    <glyph glyph-name="circle-54"
      unicode="&#x36;"
      horiz-adv-x="200" d=" M100 200M50 200A50 50 0 1 1 150 200A50 50 0 1 1 50 200M100 200M140 200A40 40 0 1 0 60 200A40 40 0 1 0 140 200" />
    <glyph glyph-name="circle-55"
      unicode="&#x37;"
      horiz-adv-x="200" d=" M100 200M50 200A50 50 0 1 1 150 200A50 50 0 1 1 50 200M100 200M140 200A40 40 0 1 0 60 200A40 40 0 1 0 140 200" />
    <glyph glyph-name="circle-56"
      unicode="&#x38;"
      horiz-adv-x="200" d=" M100 200M50 200A50 50 0 1 1 150 200A50 50 0 1 1 50 200M100 200M140 200A40 40 0 1 0 60 200A40 40 0 1 0 140 200" />
    <glyph glyph-name="circle-57"
      unicode="&#x39;"
      horiz-adv-x="200" d=" M100 200M50 200A50 50 0 1 1 150 200A50 50 0 1 1 50 200M100 200M140 200A40 40 0 1 0 60 200A40 40 0 1 0 140 200" />
    <glyph glyph-name="circle-58"
      unicode="&#x3A;"
      horiz-adv-x="200" d=" M100 200M50 200A50 50 0 1 1 150 200A50 50 0 1 1 50 200M100 200M140 200A40 40 0 1 0 60 200A40 40 0 1 0 140 200" />
    <glyph glyph-name="circle-59"
      unicode="&#x3B;"
      horiz-adv-x="200" d=" M100 200M50 200A50 50 0 1 1 150 200A50 50 0 1 1 50 200M100 200M140 200A40 40 0 1 0 60 200A40 40 0 1 0 140 200" />
    <glyph glyph-name="circle-60"
      unicode="&#x3C;"
      horiz-adv-x="200" d=" M100 200M50 200A50 50 0 1 1 150 200A50 50 0 1 1 50 200M100 200M140 200A40 40 0 1 0 60 200A40 40 0 1 0 140 200" />
    <glyph glyph-name="circle-61"
      unicode="&#x3D;"
      horiz-adv-x="200" d=" M100 200M50 200A50 50 0 1 1 150 200A50 50 0 1 1 50 200M100 200M140 200A40 40 0 1 0 60 200A40 40 0 1 0 140 200" />
    <glyph glyph-name="circle-62"
      unicode="&#x3E;"
      horiz-adv-x="200" d=" M100 200M50 200A50 50 0 1 1 150 200A50 50 0 1 1 50 200M100 200M140 200A40 40 0 1 0 60 200A40 40 0 1 0 140 200" />
    <glyph glyph-name="circle-63"
      unicode="&#x3F;"
      horiz-adv-x="200" d=" M100 200M50 200A50 50 0 1 1 150 200A50 50 0 1 1 50 200M100 200M140 200A40 40 0 1 0 60 200A40 40 0 1 0 140 200" />
    <glyph glyph-name="circle-64"
      unicode="&#x40;"
      horiz-adv-x="200" d=" M100 200M50 200A50 50 0 1 1 150 200A50 50 0 1 1 50 200M100 200M140 200A40 40 0 1 0 60 200A40 40 0 1 0 140 200" />
    <glyph glyph-name="circle-65"
      unicode="&#x41;"
      horiz-adv-x="200" d=" M100 200M50 200A50 50 0 1 1 150 200A50 50 0 1 1 50 200M100 200M140 200A40 40 0 1 0 60 200A40 40 0 1 0 140 200" />
    <glyph glyph-name="circle-66"
      unicode="&#x42;"
      horiz-adv-x="200" d=" M100 200M50 200A50 50 0 1 1 150 200A50 50 0 1 1 50 200M100 200M140 200A40 40 0 1 0 60 200A40 40 0 1 0 140 200" />
    <glyph glyph-name="circle-67"
      unicode="&#x43;"
      horiz-adv-x="200" d=" M100 200M50 200A50 50 0 1 1 150 200A50 50 0 1 1 50 200M100 200M140 200A40 40 0 1 0 60 200A40 40 0 1 0 140 200" />
    <glyph glyph-name="circle-68"
      unicode="&#x44;"
      horiz-adv-x="200" d=" M100 200M50 200A50 50 0 1 1 150 200A50 50 0 1 1 50 200M100 200M140 200A40 40 0 1 0 60 200A40 40 0 1 0 140 200" />
    <glyph glyph-name="circle-69"
      unicode="&#x45;"
      horiz-adv-x="200" d=" M100 200M50 200A50 50 0 1 1 150 200A50 50 0 1 1 50 200M100 200M140 200A40 40 0 1 0 60 200A40 40 0 1 0 140 200" />
    <glyph glyph-name="circle-70"
      unicode="&#x46;"
      horiz-adv-x="200" d=" M100 200M50 200A50 50 0 1 1 150 200A50 50 0 1 1 50 200M100 200M140 200A40 40 0 1 0 60 200A40 40 0 1 0 140 200" />
    <glyph glyph-name="circle-71"
      unicode="&#x47;"
      horiz-adv-x="200" d=" M100 200M50 200A50 50 0 1 1 150 200A50 50 0 1 1 50 200M100 200M140 200A40 40 0 1 0 60 200A40 40 0 1 0 140 200" />
    <glyph glyph-name="circle-72"
      unicode="&#x48;"
      horiz-adv-x="200" d=" M100 200M50 200A50 50 0 1 1 150 200A50 50 0 1 1 50 200M100 200M140 200A40 40 0 1 0 60 200A40 40 0 1 0 140 200" />
    <glyph glyph-name="circle-73"
      unicode="&#x49;"
      horiz-adv-x="200" d=" M100 200M50 200A50 50 0 1 1 150 200A50 50 0 1 1 50 200M100 200M140 200A40 40 0 1 0 60 200A40 40 0 1 0 140 200" />
    <glyph glyph-name="circle-74"
      unicode="&#x4A;"
      horiz-adv-x="200" d=" M100 200M50 200A50 50 0 1 1 150 200A50 50 0 1 1 50 200M100 200M140 200A40 40 0 1 0 60 200A40 40 0 1 0 140 200" />
    <glyph glyph-name="circle-75"
      unicode="&#x4B;"
      horiz-adv-x="200" d=" M100 200M50 200A50 50 0 1 1 150 200A50 50 0 1 1 50 200M100 200M140 200A40 40 0 1 0 60 200A40 40 0 1 0 140 200" />
    <glyph glyph-name="circle-76"
      unicode="&#x4C;"
      horiz-adv-x="200" d=" M100 200M50 200A50 50 0 1 1 150 200A50 50 0 1 1 50 200M100 200M140 200A40 40 0 1 0 60 200A40 40 0 1 0 140 200" />
    <glyph glyph-name="circle-77"
      unicode="&#x4D;"
      horiz-adv-x="200" d=" M100 200M50 200A50 50 0 1 1 150 200A50 50 0 1 1 50 200M100 200M140 200A40 40 0 1 0 60 200A40 40 0 1 0 140 200" />
    <glyph glyph-name="circle-78"
      unicode="&#x4E;"
      horiz-adv-x="200" d=" M100 200M50 200A50 50 0 1 1 150 200A50 50 0 1 1 50 200M100 200M140 200A40 40 0 1 0 60 200A40 40 0 1 0 140 200" />
    <glyph glyph-name="circle-79"
      unicode="&#x4F;"
      horiz-adv-x="200" d=" M100 200M50 200A50 50 0 1 1 150 200A50 50 0 1 1 50 200M100 200M140 200A40 40 0 1 0 60 200A40 40 0 1 0 140 200" />
    <glyph glyph-name="circle-80"
      unicode="&#x50;"
      horiz-adv-x="200" d=" M100 200M50 200A50 50 0 1 1 150 200A50 50 0 1 1 50 200M100 200M140 200A40 40 0 1 0 60 200A40 40 0 1 0 140 200" />
    <glyph glyph-name="circle-81"
      unicode="&#x51;"
      horiz-adv-x="200" d=" M100 200M50 200A50 50 0 1 1 150 200A50 50 0 1 1 50 200M100 200M140 200A40 40 0 1 0 60 200A40 40 0 1 0 140 200" />
    <glyph glyph-name="circle-82"
      unicode="&#x52;"
      horiz-adv-x="200" d=" M100 200M50 200A50 50 0 1 1 150 200A50 50 0 1 1 50 200M100 200M140 200A40 40 0 1 0 60 200A40 40 0 1 0 140 200" />
    <glyph glyph-name="circle-83"
      unicode="&#x53;"
      horiz-adv-x="200" d=" M100 200M50 200A50 50 0 1 1 150 200A50 50 0 1 1 50 200M100 200M140 200A40 40 0 1 0 60 200A40 40 0 1 0 140 200" />
    <glyph glyph-name="circle-84"
      unicode="&#x54;"
      horiz-adv-x="200" d=" M100 200M50 200A50 50 0 1 1 150 200A50 50 0 1 1 50 200M100 200M140 200A40 40 0 1 0 60 200A40 40 0 1 0 140 200" />
    <glyph glyph-name="circle-85"
      unicode="&#x55;"
      horiz-adv-x="200" d=" M100 200M50 200A50 50 0 1 1 150 200A50 50 0 1 1 50 200M100 200M140 200A40 40 0 1 0 60 200A40 40 0 1 0 140 200" />
    <glyph glyph-name="circle-86"
      unicode="&#x56;"
      horiz-adv-x="200" d=" M100 200M50 200A50 50 0 1 1 150 200A50 50 0 1 1 50 200M100 200M140 200A40 40 0 1 0 60 200A40 40 0 1 0 140 200" />
    <glyph glyph-name="circle-87"
      unicode="&#x57;"
      horiz-adv-x="200" d=" M100 200M50 200A50 50 0 1 1 150 200A50 50 0 1 1 50 200M100 200M140 200A40 40 0 1 0 60 200A40 40 0 1 0 140 200" />
    <glyph glyph-name="circle-88"
      unicode="&#x58;"
      horiz-adv-x="200" d=" M100 200M50 200A50 50 0 1 1 150 200A50 50 0 1 1 50 200M100 200M140 200A40 40 0 1 0 60 200A40 40 0 1 0 140 200" />
    <glyph glyph-name="circle-89"
      unicode="&#x59;"
      horiz-adv-x="200" d=" M100 200M50 200A50 50 0 1 1 150 200A50 50 0 1 1 50 200M100 200M140 200A40 40 0 1 0 60 200A40 40 0 1 0 140 200" />
    <glyph glyph-name="circle-90"
      unicode="&#x5A;"
      horiz-adv-x="200" d=" M100 200M50 200A50 50 0 1 1 150 200A50 50 0 1 1 50 200M100 200M140 200A40 40 0 1 0 60 200A40 40 0 1 0 140 200" />
    <glyph glyph-name="circle-91"
      unicode="&#x5B;"
      horiz-adv-x="200" d=" M100 200M50 200A50 50 0 1 1 150 200A50 50 0 1 1 50 200M100 200M140 200A40 40 0 1 0 60 200A40 40 0 1 0 140 200" />
    <glyph glyph-name="circle-92"
      unicode="&#x5C;"
      horiz-adv-x="200" d=" M100 200M50 200A50 50 0 1 1 150 200A50 50 0 1 1 50 200M100 200M140 200A40 40 0 1 0 60 200A40 40 0 1 0 140 200" />
    <glyph glyph-name="circle-93"
      unicode="&#x5D;"
      horiz-adv-x="200" d=" M100 200M50 200A50 50 0 1 1 150 200A50 50 0 1 1 50 200M100 200M140 200A40 40 0 1 0 60 200A40 40 0 1 0 140 200" />
    <glyph glyph-name="circle-94"
      unicode="&#x5E;"
      horiz-adv-x="200" d=" M100 200M50 200A50 50 0 1 1 150 200A50 50 0 1 1 50 200M100 200M140 200A40 40 0 1 0 60 200A40 40 0 1 0 140 200" />
    <glyph glyph-name="circle-95"
      unicode="&#x5F;"
      horiz-adv-x="200" d=" M100 200M50 200A50 50 0 1 1 150 200A50 50 0 1 1 50 200M100 200M140 200A40 40 0 1 0 60 200A40 40 0 1 0 140 200" />
    <glyph glyph-name="circle-96"
      unicode="&#x60;"
      horiz-adv-x="200" d=" M100 200M50 200A50 50 0 1 1 150 200A50 50 0 1 1 50 200M100 200M140 200A40 40 0 1 0 60 200A40 40 0 1 0 140 200" />
    <glyph glyph-name="circle-97"
      unicode="&#x61;"
      horiz-adv-x="200" d=" M100 200M50 200A50 50 0 1 1 150 200A50 50 0 1 1 50 200M100 200M140 200A40 40 0 1 0 60 200A40 40 0 1 0 140 200" />
    <glyph glyph-name="circle-98"
      unicode="&#x62;"
      horiz-adv-x="200" d=" M100 200M50 200A50 50 0 1 1 150 200A50 50 0 1 1 50 200M100 200M140 200A40 40 0 1 0 60 200A40 40 0 1 0 140 200" />
    <glyph glyph-name="circle-99"
      unicode="&#x63;"
      horiz-adv-x="200" d=" M100 200M50 200A50 50 0 1 1 150 200A50 50 0 1 1 50 200M100 200M140 200A40 40 0 1 0 60 200A40 40 0 1 0 140 200" />
    <glyph glyph-name="circle-100"
      unicode="&#x64;"
      horiz-adv-x="200" d=" M100 200M50 200A50 50 0 1 1 150 200A50 50 0 1 1 50 200M100 200M140 200A40 40 0 1 0 60 200A40 40 0 1 0 140 200" />
    <glyph glyph-name="circle-101"
      unicode="&#x65;"
      horiz-adv-x="200" d=" M100 200M50 200A50 50 0 1 1 150 200A50 50 0 1 1 50 200M100 200M140 200A40 40 0 1 0 60 200A40 40 0 1 0 140 200" />
    <glyph glyph-name="circle-102"
      unicode="&#x66;"
      horiz-adv-x="200" d=" M100 200M50 200A50 50 0 1 1 150 200A50 50 0 1 1 50 200M100 200M140 200A40 40 0 1 0 60 200A40 40 0 1 0 140 200" />
    <glyph glyph-name="circle-103"
      unicode="&#x67;"
      horiz-adv-x="200" d=" M100 200M50 200A50 50 0 1 1 150 200A50 50 0 1 1 50 200M100 200M140 200A40 40 0 1 0 60 200A40 40 0 1 0 140 200" />
    <glyph glyph-name="circle-104"
      unicode="&#x68;"
      horiz-adv-x="200" d=" M100 200M50 200A50 50 0 1 1 150 200A50 50 0 1 1 50 200M100 200M140 200A40 40 0 1 0 60 200A40 40 0 1 0 140 200" />
    <glyph glyph-name="circle-105"
      unicode="&#x69;"
      horiz-adv-x="200" d=" M100 200M50 200A50 50 0 1 1 150 200A50 50 0 1 1 50 200M100 200M140 200A40 40 0 1 0 60 200A40 40 0 1 0 140 200" />
    <glyph glyph-name="circle-106"
      unicode="&#x6A;"
      horiz-adv-x="200" d=" M100 200M50 200A50 50 0 1 1 150 200A50 50 0 1 1 50 200M100 200M140 200A40 40 0 1 0 60 200A40 40 0 1 0 140 200" />
    <glyph glyph-name="circle-107"
      unicode="&#x6B;"
      horiz-adv-x="200" d=" M100 200M50 200A50 50 0 1 1 150 200A50 50 0 1 1 50 200M100 200M140 200A40 40 0 1 0 60 200A40 40 0 1 0 140 200" />
    <glyph glyph-name="circle-108"
      unicode="&#x6C;"
      horiz-adv-x="200" d=" M100 200M50 200A50 50 0 1 1 150 200A50 50 0 1 1 50 200M100 200M140 200A40 40 0 1 0 60 200A40 40 0 1 0 140 200" />
    <glyph glyph-name="circle-109"
      unicode="&#x6D;"
      horiz-adv-x="200" d=" M100 200M50 200A50 50 0 1 1 150 200A50 50 0 1 1 50 200M100 200M140 200A40 40 0 1 0 60 200A40 40 0 1 0 140 200" />
    <glyph glyph-name="circle-110"
      unicode="&#x6E;"
      horiz-adv-x="200" d=" M100 200M50 200A50 50 0 1 1 150 200A50 50 0 1 1 50 200M100 200M140 200A40 40 0 1 0 60 200A40 40 0 1 0 140 200" />
    <glyph glyph-name="circle-111"
      unicode="&#x6F;"
      horiz-adv-x="200" d=" M100 200M50 200A50 50 0 1 1 150 200A50 50 0 1 1 50 200M100 200M140 200A40 40 0 1 0 60 200A40 40 0 1 0 140 200" />
    <glyph glyph-name="circle-112"
      unicode="&#x70;"
      horiz-adv-x="200" d=" M100 200M50 200A50 50 0 1 1 150 200A50 50 0 1 1 50 200M100 200M140 200A40 40 0 1 0 60 200A40 40 0 1 0 140 200" />
    <glyph glyph-name="circle-113"
      unicode="&#x71;"
      horiz-adv-x="200" d=" M100 200M50 200A50 50 0 1 1 150 200A50 50 0 1 1 50 200M100 200M140 200A40 40 0 1 0 60 200A40 40 0 1 0 140 200" />
    <glyph glyph-name="circle-114"
      unicode="&#x72;"
      horiz-adv-x="200" d=" M100 200M50 200A50 50 0 1 1 150 200A50 50 0 1 1 50 200M100 200M140 200A40 40 0 1 0 60 200A40 40 0 1 0 140 200" />
    <glyph glyph-name="circle-115"
      unicode="&#x73;"
      horiz-adv-x="200" d=" M100 200M50 200A50 50 0 1 1 150 200A50 50 0 1 1 50 200M100 200M140 200A40 40 0 1 0 60 200A40 40 0 1 0 140 200" />
    <glyph glyph-name="circle-116"
      unicode="&#x74;"
      horiz-adv-x="200" d=" M100 200M50 200A50 50 0 1 1 150 200A50 50 0 1 1 50 200M100 200M140 200A40 40 0 1 0 60 200A40 40 0 1 0 140 200" />
    <glyph glyph-name="circle-117"
      unicode="&#x75;"
      horiz-adv-x="200" d=" M100 200M50 200A50 50 0 1 1 150 200A50 50 0 1 1 50 200M100 200M140 200A40 40 0 1 0 60 200A40 40 0 1 0 140 200" />
    <glyph glyph-name="circle-118"
      unicode="&#x76;"
      horiz-adv-x="200" d=" M100 200M50 200A50 50 0 1 1 150 200A50 50 0 1 1 50 200M100 200M140 200A40 40 0 1 0 60 200A40 40 0 1 0 140 200" />
    <glyph glyph-name="circle-119"
      unicode="&#x77;"
      horiz-adv-x="200" d=" M100 200M50 200A50 50 0 1 1 150 200A50 50 0 1 1 50 200M100 200M140 200A40 40 0 1 0 60 200A40 40 0 1 0 140 200" />
    <glyph glyph-name="circle-120"
      unicode="&#x78;"
      horiz-adv-x="200" d=" M100 200M50 200A50 50 0 1 1 150 200A50 50 0 1 1 50 200M100 200M140 200A40 40 0 1 0 60 200A40 40 0 1 0 140 200" />
    <glyph glyph-name="circle-121"
      unicode="&#x79;"
      horiz-adv-x="200" d=" M100 200M50 200A50 50 0 1 1 150 200A50 50 0 1 1 50 200M100 200M140 200A40 40 0 1 0 60 200A40 40 0 1 0 140 200" />
    <glyph glyph-name="circle-122"
      unicode="&#x7A;"
      horiz-adv-x="200" d=" M100 200M50 200A50 50 0 1 1 150 200A50 50 0 1 1 50 200M100 200M140 200A40 40 0 1 0 60 200A40 40 0 1 0 140 200" />
    <glyph glyph-name="circle-123"
      unicode="&#x7B;"
      horiz-adv-x="200" d=" M100 200M50 200A50 50 0 1 1 150 200A50 50 0 1 1 50 200M100 200M140 200A40 40 0 1 0 60 200A40 40 0 1 0 140 200" />
    <glyph glyph-name="circle-124"
      unicode="&#x7C;"
      horiz-adv-x="200" d=" M100 200M50 200A50 50 0 1 1 150 200A50 50 0 1 1 50 200M100 200M140 200A40 40 0 1 0 60 200A40 40 0 1 0 140 200" />
    <glyph glyph-name="circle-125"
      unicode="&#x7D;"
      horiz-adv-x="200" d=" M100 200M50 200A50 50 0 1 1 150 200A50 50 0 1 1 50 200M100 200M140 200A40 40 0 1 0 60 200A40 40 0 1 0 140 200" />
    <glyph glyph-name="circle-126"
      unicode="&#x7E;"
      horiz-adv-x="200" d=" M100 200M50 200A50 50 0 1 1 150 200A50 50 0 1 1 50 200M100 200M140 200A40 40 0 1 0 60 200A40 40 0 1 0 140 200" />
    <glyph glyph-name="circle-127"
      unicode="&#x7F;"
      horiz-adv-x="200" d=" M100 200M50 200A50 50 0 1 1 150 200A50 50 0 1 1 50 200M100 200M140 200A40 40 0 1 0 60 200A40 40 0 1 0 140 200" />
    <glyph glyph-name="circle-128"
      unicode="&#x80;"
      horiz-adv-x="200" d=" M100 200M50 200A50 50 0 1 1 150 200A50 50 0 1 1 50 200M100 200M140 200A40 40 0 1 0 60 200A40 40 0 1 0 140 200" />
    <glyph glyph-name="circle-129"
      unicode="&#x81;"
      horiz-adv-x="200" d=" M100 200M50 200A50 50 0 1 1 150 200A50 50 0 1 1 50 200M100 200M140 200A40 40 0 1 0 60 200A40 40 0 1 0 140 200" />
    <glyph glyph-name="circle-130"
      unicode="&#x82;"
      horiz-adv-x="200" d=" M100 200M50 200A50 50 0 1 1 150 200A50 50 0 1 1 50 200M100 200M140 200A40 40 0 1 0 60 200A40 40 0 1 0 140 200" />
    <glyph glyph-name="circle-131"
      unicode="&#x83;"
      horiz-adv-x="200" d=" M100 200M50 200A50 50 0 1 1 150 200A50 50 0 1 1 50 200M100 200M140 200A40 40 0 1 0 60 200A40 40 0 1 0 140 200" />
    <glyph glyph-name="circle-132"
      unicode="&#x84;"
      horiz-adv-x="200" d=" M100 200M50 200A50 50 0 1 1 150 200A50 50 0 1 1 50 200M100 200M140 200A40 40 0 1 0 60 200A40 40 0 1 0 140 200" />
    <glyph glyph-name="circle-133"
      unicode="&#x85;"
      horiz-adv-x="200" d=" M100 200M50 200A50 50 0 1 1 150 200A50 50 0 1 1 50 200M100 200M140 200A40 40 0 1 0 60 200A40 40 0 1 0 140 200" />
    <glyph glyph-name="circle-134"
      unicode="&#x86;"
      horiz-adv-x="200" d=" M100 200M50 200A50 50 0 1 1 150 200A50 50 0 1 1 50 200M100 200M140 200A40 40 0 1 0 60 200A40 40 0 1 0 140 200" />
    <glyph glyph-name="circle-135"
      unicode="&#x87;"
      horiz-adv-x="200" d=" M100 200M50 200A50 50 0 1 1 150 200A50 50 0 1 1 50 200M100 200M140 200A40 40 0 1 0 60 200A40 40 0 1 0 140 200" />
    <glyph glyph-name="circle-136"
      unicode="&#x88;"
      horiz-adv-x="200" d=" M100 200M50 200A50 50 0 1 1 150 200A50 50 0 1 1 50 200M100 200M140 200A40 40 0 1 0 60 200A40 40 0 1 0 140 200" />
    <glyph glyph-name="circle-137"
      unicode="&#x89;"
      horiz-adv-x="200" d=" M100 200M50 200A50 50 0 1 1 150 200A50 50 0 1 1 50 200M100 200M140 200A40 40 0 1 0 60 200A40 40 0 1 0 140 200" />
    <glyph glyph-name="circle-138"
      unicode="&#x8A;"
      horiz-adv-x="200" d=" M100 200M50 200A50 50 0 1 1 150 200A50 50 0 1 1 50 200M100 200M140 200A40 40 0 1 0 60 200A40 40 0 1 0 140 200" />
    <glyph glyph-name="circle-139"
      unicode="&#x8B;"
      horiz-adv-x="200" d=" M100 200M50 200A50 50 0 1 1 150 200A50 50 0 1 1 50 200M100 200M140 200A40 40 0 1 0 60 200A40 40 0 1 0 140 200" />
    <glyph glyph-name="circle-140"
      unicode="&#x8C;"
      horiz-adv-x="200" d=" M100 200M50 200A50 50 0 1 1 150 200A50 50 0 1 1 50 200M100 200M140 200A40 40 0 1 0 60 200A40 40 0 1 0 140 200" />
    <glyph glyph-name="circle-141"
      unicode="&#x8D;"
      horiz-adv-x="200" d=" M100 200M50 200A50 50 0 1 1 150 200A50 50 0 1 1 50 200M100 200M140 200A40 40 0 1 0 60 200A40 40 0 1 0 140 200" />
    <glyph glyph-name="circle-142"
      unicode="&#x8E;"
      horiz-adv-x="200" d=" M100 200M50 200A50 50 0 1 1 150 200A50 50 0 1 1 50 200M100 200M140 200A40 40 0 1 0 60 200A40 40 0 1 0 140 200" />
    <glyph glyph-name="circle-143"
      unicode="&#x8F;"
      horiz-adv-x="200" d=" M100 200M50 200A50 50 0 1 1 150 200A50 50 0 1 1 50 200M100 200M140 200A40 40 0 1 0 60 200A40 40 0 1 0 140 200" />
    <glyph glyph-name="circle-144"
      unicode="&#x90;"
      horiz-adv-x="200" d=" M100 200M50 200A50 50 0 1 1 150 200A50 50 0 1 1 50 200M100 200M140 200A40 40 0 1 0 60 200A40 40 0 1 0 140 200" />
    <glyph glyph-name="circle-145"
      unicode="&#x91;"
      horiz-adv-x="200" d=" M100 200M50 200A50 50 0 1 1 150 200A50 50 0 1 1 50 200M100 200M140 200A40 40 0 1 0 60 200A40 40 0 1 0 140 200" />
    <glyph glyph-name="circle-146"
      unicode="&#x92;"
      horiz-adv-x="200" d=" M100 200M50 200A50 50 0 1 1 150 200A50 50 0 1 1 50 200M100 200M140 200A40 40 0 1 0 60 200A40 40 0 1 0 140 200" />
    <glyph glyph-name="circle-147"
      unicode="&#x93;"
      horiz-adv-x="200" d=" M100 200M50 200A50 50 0 1 1 150 200A50 50 0 1 1 50 200M100 200M140 200A40 40 0 1 0 60 200A40 40 0 1 0 140 200" />
    <glyph glyph-name="circle-148"
      unicode="&#x94;"
      horiz-adv-x="200" d=" M100 200M50 200A50 50 0 1 1 150 200A50 50 0 1 1 50 200M100 200M140 200A40 40 0 1 0 60 200A40 40 0 1 0 140 200" />
    <glyph glyph-name="circle-149"
      unicode="&#x95;"
      horiz-adv-x="200" d=" M100 200M50 200A50 50 0 1 1 150 200A50 50 0 1 1 50 200M100 200M140 200A40 40 0 1 0 60 200A40 40 0 1 0 140 200" />
    <glyph glyph-name="circle-150"
      unicode="&#x96;"
      horiz-adv-x="200" d=" M100 200M50 200A50 50 0 1 1 150 200A50 50 0 1 1 50 200M100 200M140 200A40 40 0 1 0 60 200A40 40 0 1 0 140 200" />
    <glyph glyph-name="circle-151"
      unicode="&#x97;"
      horiz-adv-x="200" d=" M100 200M50 200A50 50 0 1 1 150 200A50 50 0 1 1 50 200M100 200M140 200A40 40 0 1 0 60 200A40 40 0 1 0 140 200" />
    <glyph glyph-name="circle-152"
      unicode="&#x98;"
      horiz-adv-x="200" d=" M100 200M50 200A50 50 0 1 1 150 200A50 50 0 1 1 50 200M100 200M140 200A40 40 0 1 0 60 200A40 40 0 1 0 140 200" />
    <glyph glyph-name="circle-153"
      unicode="&#x99;"
      horiz-adv-x="200" d=" M100 200M50 200A50 50 0 1 1 150 200A50 50 0 1 1 50 200M100 200M140 200A40 40 0 1 0 60 200A40 40 0 1 0 140 200" />
    <glyph glyph-name="circle-154"
      unicode="&#x9A;"
      horiz-adv-x="200" d=" M100 200M50 200A50 50 0 1 1 150 200A50 50 0 1 1 50 200M100 200M140 200A40 40 0 1 0 60 200A40 40 0 1 0 140 200" />
    <glyph glyph-name="circle-155"
      unicode="&#x9B;"
      horiz-adv-x="200" d=" M100 200M50 200A50 50 0 1 1 150 200A50 50 0 1 1 50 200M100 200M140 200A40 40 0 1 0 60 200A40 40 0 1 0 140 200" />
    <glyph glyph-name="circle-156"
      unicode="&#x9C;"
      horiz-adv-x="200" d=" M100 200M50 200A50 50 0 1 1 150 200A50 50 0 1 1 50 200M100 200M140 200A40 40 0 1 0 60 200A40 40 0 1 0 140 200" />
    <glyph glyph-name="circle-157"
      unicode="&#x9D;"
      horiz-adv-x="200" d=" M100 200M50 200A50 50 0 1 1 150 200A50 50 0 1 1 50 200M100 200M140 200A40 40 0 1 0 60 200A40 40 0 1 0 140 200" />
    <glyph glyph-name="circle-158"
      unicode="&#x9E;"
      horiz-adv-x="200" d=" M100 200M50 200A50 50 0 1 1 150 200A50 50 0 1 1 50 200M100 200M140 200A40 40 0 1 0 60 200A40 40 0 1 0 140 200" />
    <glyph glyph-name="circle-159"
      unicode="&#x9F;"
      horiz-adv-x="200" d=" M100 200M50 200A50 50 0 1 1 150 200A50 50 0 1 1 50 200M100 200M140 200A40 40 0 1 0 60 200A40 40 0 1 0 140 200" />
    <glyph glyph-name="circle-160"
      unicode="&#xA0;"
      horiz-adv-x="200" d=" M100 200M50 200A50 50 0 1 1 150 200A50 50 0 1 1 50 200M100 200M140 200A40 40 0 1 0 60 200A40 40 0 1 0 140 200" />
    <glyph glyph-name="circle-161"
      unicode="&#xA1;"
      horiz-adv-x="200" d=" M100 200M50 200A50 50 0 1 1 150 200A50 50 0 1 1 50 200M100 200M140 200A40 40 0 1 0 60 200A40 40 0 1 0 140 200" />
    <glyph glyph-name="circle-162"
      unicode="&#xA2;"
      horiz-adv-x="200" d=" M100 200M50 200A50 50 0 1 1 150 200A50 50 0 1 1 50 200M100 200M140 200A40 40 0 1 0 60 200A40 40 0 1 0 140 200" />
    <glyph glyph-name="circle-163"
      unicode="&#xA3;"
      horiz-adv-x="200" d=" M100 200M50 200A50 50 0 1 1 150 200A50 50 0 1 1 50 200M100 200M140 200A40 40 0 1 0 60 200A40 40 0 1 0 140 200" />
    <glyph glyph-name="circle-164"
      unicode="&#xA4;"
      horiz-adv-x="200" d=" M100 200M50 200A50 50 0 1 1 150 200A50 50 0 1 1 50 200M100 200M140 200A40 40 0 1 0 60 200A40 40 0 1 0 140 200" />
    <glyph glyph-name="circle-165"
      unicode="&#xA5;"
      horiz-adv-x="200" d=" M100 200M50 200A50 50 0 1 1 150 200A50 50 0 1 1 50 200M100 200M140 200A40 40 0 1 0 60 200A40 40 0 1 0 140 200" />
    <glyph glyph-name="circle-166"
      unicode="&#xA6;"
      horiz-adv-x="200" d=" M100 200M50 200A50 50 0 1 1 150 200A50 50 0 1 1 50 200M100 200M140 200A40 40 0 1 0 60 200A40 40 0 1 0 140 200" />
    <glyph glyph-name="circle-167"
      unicode="&#xA7;"
      horiz-adv-x="200" d=" M100 200M50 200A50 50 0 1 1 150 200A50 50 0 1 1 50 200M100 200M140 200A40 40 0 1 0 60 200A40 40 0 1 0 140 200" />
    <glyph glyph-name="circle-168"
      unicode="&#xA8;"
      horiz-adv-x="200" d=" M100 200M50 200A50 50 0 1 1 150 200A50 50 0 1 1 50 200M100 200M140 200A40 40 0 1 0 60 200A40 40 0 1 0 140 200" />
    <glyph glyph-name="circle-169"
      unicode="&#xA9;"
      horiz-adv-x="200" d=" M100 200M50 200A50 50 0 1 1 150 200A50 50 0 1 1 50 200M100 200M140 200A40 40 0 1 0 60 200A40 40 0 1 0 140 200" />
    <glyph glyph-name="circle-170"
      unicode="&#xAA;"
      horiz-adv-x="200" d=" M100 200M50 200A50 50 0 1 1 150 200A50 50 0 1 1 50 200M100 200M140 200A40 40 0 1 0 60 200A40 40 0 1 0 140 200" />
    <glyph glyph-name="circle-171"
      unicode="&#xAB;"
      horiz-adv-x="200" d=" M100 200M50 200A50 50 0 1 1 150 200A50 50 0 1 1 50 200M100 200M140 200A40 40 0 1 0 60 200A40 40 0 1 0 140 200" />
    <glyph glyph-name="circle-172"
      unicode="&#xAC;"
      horiz-adv-x="200" d=" M100 200M50 200A50 50 0 1 1 150 200A50 50 0 1 1 50 200M100 200M140 200A40 40 0 1 0 60 200A40 40 0 1 0 140 200" />
    <glyph glyph-name="circle-173"
      unicode="&#xAD;"
      horiz-adv-x="200" d=" M100 200M50 200A50 50 0 1 1 150 200A50 50 0 1 1 50 200M100 200M140 200A40 40 0 1 0 60 200A40 40 0 1 0 140 200" />
    <glyph glyph-name="circle-174"
      unicode="&#xAE;"
      horiz-adv-x="200" d=" M100 200M50 200A50 50 0 1 1 150 200A50 50 0 1 1 50 200M100 200M140 200A40 40 0 1 0 60 200A40 40 0 1 0 140 200" />
    <glyph glyph-name="circle-175"
      unicode="&#xAF;"
      horiz-adv-x="200" d=" M100 200M50 200A50 50 0 1 1 150 200A50 50 0 1 1 50 200M100 200M140 200A40 40 0 1 0 60 200A40 40 0 1 0 140 200" />
    <glyph glyph-name="circle-176"
      unicode="&#xB0;"
      horiz-adv-x="200" d=" M100 200M50 200A50 50 0 1 1 150 200A50 50 0 1 1 50 200M100 200M140 200A40 40 0 1 0 60 200A40 40 0 1 0 140 200" />
    <glyph glyph-name="circle-177"
      unicode="&#xB1;"
      horiz-adv-x="200" d=" M100 200M50 200A50 50 0 1 1 150 200A50 50 0 1 1 50 200M100 200M140 200A40 40 0 1 0 60 200A40 40 0 1 0 140 200" />
    <glyph glyph-name="circle-178"
      unicode="&#xB2;"
      horiz-adv-x="200" d=" M100 200M50 200A50 50 0 1 1 150 200A50 50 0 1 1 50 200M100 200M140 200A40 40 0 1 0 60 200A40 40 0 1 0 140 200" />
    <glyph glyph-name="circle-179"
      unicode="&#xB3;"
      horiz-adv-x="200" d=" M100 200M50 200A50 50 0 1 1 150 200A50 50 0 1 1 50 200M100 200M140 200A40 40 0 1 0 60 200A40 40 0 1 0 140 200" />
    <glyph glyph-name="circle-180"
      unicode="&#xB4;"
      horiz-adv-x="200" d=" M100 200M50 200A50 50 0 1 1 150 200A50 50 0 1 1 50 200M100 200M140 200A40 40 0 1 0 60 200A40 40 0 1 0 140 200" />
    <glyph glyph-name="circle-181"
      unicode="&#xB5;"
      horiz-adv-x="200" d=" M100 200M50 200A50 50 0 1 1 150 200A50 50 0 1 1 50 200M100 200M140 200A40 40 0 1 0 60 200A40 40 0 1 0 140 200" />
    <glyph glyph-name="circle-182"
      unicode="&#xB6;"
      horiz-adv-x="200" d=" M100 200M50 200A50 50 0 1 1 150 200A50 50 0 1 1 50 200M100 200M140 200A40 40 0 1 0 60 200A40 40 0 1 0 140 200" />
    <glyph glyph-name="circle-183"
      unicode="&#xB7;"
      horiz-adv-x="200" d=" M100 200M50 200A50 50 0 1 1 150 200A50 50 0 1 1 50 200M100 200M140 200A40 40 0 1 0 60 200A40 40 0 1 0 140 200" />
    <glyph glyph-name="circle-184"
      unicode="&#xB8;"
      horiz-adv-x="200" d=" M100 200M50 200A50 50 0 1 1 150 200A50 50 0 1 1 50 200M100 200M140 200A40 40 0 1 0 60 200A40 40 0 1 0 140 200" />
    <glyph glyph-name="circle-185"
      unicode="&#xB9;"
      horiz-adv-x="200" d=" M100 200M50 200A50 50 0 1 1 150 200A50 50 0 1 1 50 200M100 200M140 200A40 40 0 1 0 60 200A40 40 0 1 0 140 200" />
    <glyph glyph-name="circle-186"
      unicode="&#xBA;"
      horiz-adv-x="200" d=" M100 200M50 200A50 50 0 1 1 150 200A50 50 0 1 1 50 200M100 200M140 200A40 40 0 1 0 60 200A40 40 0 1 0 140 200" />
    <glyph glyph-name="circle-187"
      unicode="&#xBB;"
      horiz-adv-x="200" d=" M100 200M50 200A50 50 0 1 1 150 200A50 50 0 1 1 50 200M100 200M140 200A40 40 0 1 0 60 200A40 40 0 1 0 140 200" />
    <glyph glyph-name="circle-188"
      unicode="&#xBC;"
      horiz-adv-x="200" d=" M100 200M50 200A50 50 0 1 1 150 200A50 50 0 1 1 50 200M100 200M140 200A40 40 0 1 0 60 200A40 40 0 1 0 140 200" />
    <glyph glyph-name="circle-189"
      unicode="&#xBD;"
      horiz-adv-x="200" d=" M100 200M50 200A50 50 0 1 1 150 200A50 50 0 1 1 50 200M100 200M140 200A40 40 0 1 0 60 200A40 40 0 1 0 140 200" />
    <glyph glyph-name="circle-190"
      unicode="&#xBE;"
      horiz-adv-x="200" d=" M100 200M50 200A50 50 0 1 1 150 200A50 50 0 1 1 50 200M100 200M140 200A40 40 0 1 0 60 200A40 40 0 1 0 140 200" />
    <glyph glyph-name="circle-191"
      unicode="&#xBF;"
      horiz-adv-x="200" d=" M100 200M50 200A50 50 0 1 1 150 200A50 50 0 1 1 50 200M100 200M140 200A40 40 0 1 0 60 200A40 40 0 1 0 140 200" />
    <glyph glyph-name="circle-192"
      unicode="&#xC0;"
      horiz-adv-x="200" d=" M100 200M50 200A50 50 0 1 1 150 200A50 50 0 1 1 50 200M100 200M140 200A40 40 0 1 0 60 200A40 40 0 1 0 140 200" />
    <glyph glyph-name="circle-193"
      unicode="&#xC1;"
      horiz-adv-x="200" d=" M100 200M50 200A50 50 0 1 1 150 200A50 50 0 1 1 50 200M100 200M140 200A40 40 0 1 0 60 200A40 40 0 1 0 140 200" />
    <glyph glyph-name="circle-194"
      unicode="&#xC2;"
      horiz-adv-x="200" d=" M100 200M50 200A50 50 0 1 1 150 200A50 50 0 1 1 50 200M100 200M140 200A40 40 0 1 0 60 200A40 40 0 1 0 140 200" />
    <glyph glyph-name="circle-195"
      unicode="&#xC3;"
      horiz-adv-x="200" d=" M100 200M50 200A50 50 0 1 1 150 200A50 50 0 1 1 50 200M100 200M140 200A40 40 0 1 0 60 200A40 40 0 1 0 140 200" />
    <glyph glyph-name="circle-196"
      unicode="&#xC4;"
      horiz-adv-x="200" d=" M100 200M50 200A50 50 0 1 1 150 200A50 50 0 1 1 50 200M100 200M140 200A40 40 0 1 0 60 200A40 40 0 1 0 140 200" />
    <glyph glyph-name="circle-197"
      unicode="&#xC5;"
      horiz-adv-x="200" d=" M100 200M50 200A50 50 0 1 1 150 200A50 50 0 1 1 50 200M100 200M140 200A40 40 0 1 0 60 200A40 40 0 1 0 140 200" />
    <glyph glyph-name="circle-198"
      unicode="&#xC6;"
      horiz-adv-x="200" d=" M100 200M50 200A50 50 0 1 1 150 200A50 50 0 1 1 50 200M100 200M140 200A40 40 0 1 0 60 200A40 40 0 1 0 140 200" />
    <glyph glyph-name="circle-199"
      unicode="&#xC7;"
      horiz-adv-x="200" d=" M100 200M50 200A50 50 0 1 1 150 200A50 50 0 1 1 50 200M100 200M140 200A40 40 0 1 0 60 200A40 40 0 1 0 140 200" />
    <glyph glyph-name="circle-200"
      unicode="&#xC8;"
      horiz-adv-x="200" d=" M100 200M50 200A50 50 0 1 1 150 200A50 50 0 1 1 50 200M100 200M140 200A40 40 0 1 0 60 200A40 40 0 1 0 140 200" />
    <glyph glyph-name="circle-201"
      unicode="&#xC9;"
      horiz-adv-x="200" d=" M100 200M50 200A50 50 0 1 1 150 200A50 50 0 1 1 50 200M100 200M140 200A40 40 0 1 0 60 200A40 40 0 1 0 140 200" />
    <glyph glyph-name="circle-202"
      unicode="&#xCA;"
      horiz-adv-x="200" d=" M100 200M50 200A50 50 0 1 1 150 200A50 50 0 1 1 50 200M100 200M140 200A40 40 0 1 0 60 200A40 40 0 1 0 140 200" />
    <glyph glyph-name="circle-203"
      unicode="&#xCB;"
      horiz-adv-x="200" d=" M100 200M50 200A50 50 0 1 1 150 200A50 50 0 1 1 50 200M100 200M140 200A40 40 0 1 0 60 200A40 40 0 1 0 140 200" />
    <glyph glyph-name="circle-204"
      unicode="&#xCC;"
      horiz-adv-x="200" d=" M100 200M50 200A50 50 0 1 1 150 200A50 50 0 1 1 50 200M100 200M140 200A40 40 0 1 0 60 200A40 40 0 1 0 140 200" />
    <glyph glyph-name="circle-205"
      unicode="&#xCD;"
      horiz-adv-x="200" d=" M100 200M50 200A50 50 0 1 1 150 200A50 50 0 1 1 50 200M100 200M140 200A40 40 0 1 0 60 200A40 40 0 1 0 140 200" />
    <glyph glyph-name="circle-206"
      unicode="&#xCE;"
      horiz-adv-x="200" d=" M100 200M50 200A50 50 0 1 1 150 200A50 50 0 1 1 50 200M100 200M140 200A40 40 0 1 0 60 200A40 40 0 1 0 140 200" />
    <glyph glyph-name="circle-207"
      unicode="&#xCF;"
      horiz-adv-x="200" d=" M100 200M50 200A50 50 0 1 1 150 200A50 50 0 1 1 50 200M100 200M140 200A40 40 0 1 0 60 200A40 40 0 1 0 140 200" />
    <glyph glyph-name="circle-208"
      unicode="&#xD0;"
      horiz-adv-x="200" d=" M100 200M50 200A50 50 0 1 1 150 200A50 50 0 1 1 50 200M100 200M140 200A40 40 0 1 0 60 200A40 40 0 1 0 140 200" />
    <glyph glyph-name="circle-209"
      unicode="&#xD1;"
      horiz-adv-x="200" d=" M100 200M50 200A50 50 0 1 1 150 200A50 50 0 1 1 50 200M100 200M140 200A40 40 0 1 0 60 200A40 40 0 1 0 140 200" />
    <glyph glyph-name="circle-210"
      unicode="&#xD2;"
      horiz-adv-x="200" d=" M100 200M50 200A50 50 0 1 1 150 200A50 50 0 1 1 50 200M100 200M140 200A40 40 0 1 0 60 200A40 40 0 1 0 140 200" />
    <glyph glyph-name="circle-211"
      unicode="&#xD3;"
      horiz-adv-x="200" d=" M100 200M50 200A50 50 0 1 1 150 200A50 50 0 1 1 50 200M100 200M140 200A40 40 0 1 0 60 200A40 40 0 1 0 140 200" />
    <glyph glyph-name="circle-212"
      unicode="&#xD4;"
      horiz-adv-x="200" d=" M100 200M50 200A50 50 0 1 1 150 200A50 50 0 1 1 50 200M100 200M140 200A40 40 0 1 0 60 200A40 40 0 1 0 140 200" />
    <glyph glyph-name="circle-213"
      unicode="&#xD5;"
      horiz-adv-x="200" d=" M100 200M50 200A50 50 0 1 1 150 200A50 50 0 1 1 50 200M100 200M140 200A40 40 0 1 0 60 200A40 40 0 1 0 140 200" />
    <glyph glyph-name="circle-214"
      unicode="&#xD6;"
      horiz-adv-x="200" d=" M100 200M50 200A50 50 0 1 1 150 200A50 50 0 1 1 50 200M100 200M140 200A40 40 0 1 0 60 200A40 40 0 1 0 140 200" />
    <glyph glyph-name="circle-215"
      unicode="&#xD7;"
      horiz-adv-x="200" d=" M100 200M50 200A50 50 0 1 1 150 200A50 50 0 1 1 50 200M100 200M140 200A40 40 0 1 0 60 200A40 40 0 1 0 140 200" />
    <glyph glyph-name="circle-216"
      unicode="&#xD8;"
      horiz-adv-x="200" d=" M100 200M50 200A50 50 0 1 1 150 200A50 50 0 1 1 50 200M100 200M140 200A40 40 0 1 0 60 200A40 40 0 1 0 140 200" />
    <glyph glyph-name="circle-217"
      unicode="&#xD9;"
      horiz-adv-x="200" d=" M100 200M50 200A50 50 0 1 1 150 200A50 50 0 1 1 50 200M100 200M140 200A40 40 0 1 0 60 200A40 40 0 1 0 140 200" />
    <glyph glyph-name="circle-218"
      unicode="&#xDA;"
      horiz-adv-x="200" d=" M100 200M50 200A50 50 0 1 1 150 200A50 50 0 1 1 50 200M100 200M140 200A40 40 0 1 0 60 200A40 40 0 1 0 140 200" />
    <glyph glyph-name="circle-219"
      unicode="&#xDB;"
      horiz-adv-x="200" d=" M100 200M50 200A50 50 0 1 1 150 200A50 50 0 1 1 50 200M100 200M140 200A40 40 0 1 0 60 200A40 40 0 1 0 140 200" />
    <glyph glyph-name="circle-220"
      unicode="&#xDC;"
      horiz-adv-x="200" d=" M100 200M50 200A50 50 0 1 1 150 200A50 50 0 1 1 50 200M100 200M140 200A40 40 0 1 0 60 200A40 40 0 1 0 140 200" />
    <glyph glyph-name="circle-221"
      unicode="&#xDD;"
      horiz-adv-x="200" d=" M100 200M50 200A50 50 0 1 1 150 200A50 50 0 1 1 50 200M100 200M140 200A40 40 0 1 0 60 200A40 40 0 1 0 140 200" />
    <glyph glyph-name="circle-222"
      unicode="&#xDE;"
      horiz-adv-x="200" d=" M100 200M50 200A50 50 0 1 1 150 200A50 50 0 1 1 50 200M100 200M140 200A40 40 0 1 0 60 200A40 40 0 1 0 140 200" />
    <glyph glyph-name="circle-223"
      unicode="&#xDF;"
      horiz-adv-x="200" d=" M100 200M50 200A50 50 0 1 1 150 200A50 50 0 1 1 50 200M100 200M140 200A40 40 0 1 0 60 200A40 40 0 1 0 140 200" />
    <glyph glyph-name="circle-224"
      unicode="&#xE0;"
      horiz-adv-x="200" d=" M100 200M50 200A50 50 0 1 1 150 200A50 50 0 1 1 50 200M100 200M140 200A40 40 0 1 0 60 200A40 40 0 1 0 140 200" />
    <glyph glyph-name="circle-225"
      unicode="&#xE1;"
      horiz-adv-x="200" d=" M100 200M50 200A50 50 0 1 1 150 200A50 50 0 1 1 50 200M100 200M140 200A40 40 0 1 0 60 200A40 40 0 1 0 140 200" />
    <glyph glyph-name="circle-226"
      unicode="&#xE2;"
      horiz-adv-x="200" d=" M100 200M50 200A50 50 0 1 1 150 200A50 50 0 1 1 50 200M100 200M140 200A40 40 0 1 0 60 200A40 40 0 1 0 140 200" />
    <glyph glyph-name="circle-227"
      unicode="&#xE3;"
      horiz-adv-x="200" d=" M100 200M50 200A50 50 0 1 1 150 200A50 50 0 1 1 50 200M100 200M140 200A40 40 0 1 0 60 200A40 40 0 1 0 140 200" />
    <glyph glyph-name="circle-228"
      unicode="&#xE4;"
      horiz-adv-x="200" d=" M100 200M50 200A50 50 0 1 1 150 200A50 50 0 1 1 50 200M100 200M140 200A40 40 0 1 0 60 200A40 40 0 1 0 140 200" />
    <glyph glyph-name="circle-229"
      unicode="&#xE5;"
      horiz-adv-x="200" d=" M100 200M50 200A50 50 0 1 1 150 200A50 50 0 1 1 50 200M100 200M140 200A40 40 0 1 0 60 200A40 40 0 1 0 140 200" />
    <glyph glyph-name="circle-230"
      unicode="&#xE6;"
      horiz-adv-x="200" d=" M100 200M50 200A50 50 0 1 1 150 200A50 50 0 1 1 50 200M100 200M140 200A40 40 0 1 0 60 200A40 40 0 1 0 140 200" />
    <glyph glyph-name="circle-231"
      unicode="&#xE7;"
      horiz-adv-x="200" d=" M100 200M50 200A50 50 0 1 1 150 200A50 50 0 1 1 50 200M100 200M140 200A40 40 0 1 0 60 200A40 40 0 1 0 140 200" />
    <glyph glyph-name="circle-232"
      unicode="&#xE8;"
      horiz-adv-x="200" d=" M100 200M50 200A50 50 0 1 1 150 200A50 50 0 1 1 50 200M100 200M140 200A40 40 0 1 0 60 200A40 40 0 1 0 140 200" />
    <glyph glyph-name="circle-233"
      unicode="&#xE9;"
      horiz-adv-x="200" d=" M100 200M50 200A50 50 0 1 1 150 200A50 50 0 1 1 50 200M100 200M140 200A40 40 0 1 0 60 200A40 40 0 1 0 140 200" />
    <glyph glyph-name="circle-234"
      unicode="&#xEA;"
      horiz-adv-x="200" d=" M100 200M50 200A50 50 0 1 1 150 200A50 50 0 1 1 50 200M100 200M140 200A40 40 0 1 0 60 200A40 40 0 1 0 140 200" />
    <glyph glyph-name="circle-235"
      unicode="&#xEB;"
      horiz-adv-x="200" d=" M100 200M50 200A50 50 0 1 1 150 200A50 50 0 1 1 50 200M100 200M140 200A40 40 0 1 0 60 200A40 40 0 1 0 140 200" />
    <glyph glyph-name="circle-236"
      unicode="&#xEC;"
      horiz-adv-x="200" d=" M100 200M50 200A50 50 0 1 1 150 200A50 50 0 1 1 50 200M100 200M140 200A40 40 0 1 0 60 200A40 40 0 1 0 140 200" />
    <glyph glyph-name="circle-237"
      unicode="&#xED;"
      horiz-adv-x="200" d=" M100 200M50 200A50 50 0 1 1 150 200A50 50 0 1 1 50 200M100 200M140 200A40 40 0 1 0 60 200A40 40 0 1 0 140 200" />
    <glyph glyph-name="circle-238"
      unicode="&#xEE;"
      horiz-adv-x="200" d=" M100 200M50 200A50 50 0 1 1 150 200A50 50 0 1 1 50 200M100 200M140 200A40 40 0 1 0 60 200A40 40 0 1 0 140 200" />
    <glyph glyph-name="circle-239"
      unicode="&#xEF;"
      horiz-adv-x="200" d=" M100 200M50 200A50 50 0 1 1 150 200A50 50 0 1 1 50 200M100 200M140 200A40 40 0 1 0 60 200A40 40 0 1 0 140 200" />
    <glyph glyph-name="circle-240"
      unicode="&#xF0;"
      horiz-adv-x="200" d=" M100 200M50 200A50 50 0 1 1 150 200A50 50 0 1 1 50 200M100 200M140 200A40 40 0 1 0 60 200A40 40 0 1 0 140 200" />
    <glyph glyph-name="circle-241"
      unicode="&#xF1;"
      horiz-adv-x="200" d=" M100 200M50 200A50 50 0 1 1 150 200A50 50 0 1 1 50 200M100 200M140 200A40 40 0 1 0 60 200A40 40 0 1 0 140 200" />
    <glyph glyph-name="circle-242"
      unicode="&#xF2;"
      horiz-adv-x="200" d=" M100 200M50 200A50 50 0 1 1 150 200A50 50 0 1 1 50 200M100 200M140 200A40 40 0 1 0 60 200A40 40 0 1 0 140 200" />
    <glyph glyph-name="circle-243"
      unicode="&#xF3;"
      horiz-adv-x="200" d=" M100 200M50 200A50 50 0 1 1 150 200A50 50 0 1 1 50 200M100 200M140 200A40 40 0 1 0 60 200A40 40 0 1 0 140 200" />
    <glyph glyph-name="circle-244"
      unicode="&#xF4;"
      horiz-adv-x="200" d=" M100 200M50 200A50 50 0 1 1 150 200A50 50 0 1 1 50 200M100 200M140 200A40 40 0 1 0 60 200A40 40 0 1 0 140 200" />
    <glyph glyph-name="circle-245"
      unicode="&#xF5;"
      horiz-adv-x="200" d=" M100 200M50 200A50 50 0 1 1 150 200A50 50 0 1 1 50 200M100 200M140 200A40 40 0 1 0 60 200A40 40 0 1 0 140 200" />
    <glyph glyph-name="circle-246"
      unicode="&#xF6;"
      horiz-adv-x="200" d=" M100 200M50 200A50 50 0 1 1 150 200A50 50 0 1 1 50 200M100 200M140 200A40 40 0 1 0 60 200A40 40 0 1 0 140 200" />
    <glyph glyph-name="circle-247"
      unicode="&#xF7;"
      horiz-adv-x="200" d=" M100 200M50 200A50 50 0 1 1 150 200A50 50 0 1 1 50 200M100 200M140 200A40 40 0 1 0 60 200A40 40 0 1 0 140 200" />
    <glyph glyph-name="circle-248"
      unicode="&#xF8;"
      horiz-adv-x="200" d=" M100 200M50 200A50 50 0 1 1 150 200A50 50 0 1 1 50 200M100 200M140 200A40 40 0 1 0 60 200A40 40 0 1 0 140 200" />
    <glyph glyph-name="circle-249"
      unicode="&#xF9;"
      horiz-adv-x="200" d=" M100 200M50 200A50 50 0 1 1 150 200A50 50 0 1 1 50 200M100 200M140 200A40 40 0 1 0 60 200A40 40 0 1 0 140 200" />
    <glyph glyph-name="circle-250"
      unicode="&#xFA;"
      horiz-adv-x="200" d=" M100 200M50 200A50 50 0 1 1 150 200A50 50 0 1 1 50 200M100 200M140 200A40 40 0 1 0 60 200A40 40 0 1 0 140 200" />
    <glyph glyph-name="circle-251"
      unicode="&#xFB;"
      horiz-adv-x="200" d=" M100 200M50 200A50 50 0 1 1 150 200A50 50 0 1 1 50 200M100 200M140 200A40 40 0 1 0 60 200A40 40 0 1 0 140 200" />
    <glyph glyph-name="circle-252"
      unicode="&#xFC;"
      horiz-adv-x="200" d=" M100 200M50 200A50 50 0 1 1 150 200A50 50 0 1 1 50 200M100 200M140 200A40 40 0 1 0 60 200A40 40 0 1 0 140 200" />
    <glyph glyph-name="circle-253"
      unicode="&#xFD;"
      horiz-adv-x="200" d=" M100 200M50 200A50 50 0 1 1 150 200A50 50 0 1 1 50 200M100 200M140 200A40 40 0 1 0 60 200A40 40 0 1 0 140 200" />
    <glyph glyph-name="circle-254"
      unicode="&#xFE;"
      horiz-adv-x="200" d=" M100 200M50 200A50 50 0 1 1 150 200A50 50 0 1 1 50 200M100 200M140 200A40 40 0 1 0 60 200A40 40 0 1 0 140 200" />
    <glyph glyph-name="circle-255"
      unicode="&#xFF;"
      horiz-adv-x="200" d=" M100 200M50 200A50 50 0 1 1 150 200A50 50 0 1 1 50 200M100 200M140 200A40 40 0 1 0 60 200A40 40 0 1 0 140 200" />
    <glyph glyph-name="circle-256"
      unicode="&#x100;"
      horiz-adv-x="200" d=" M100 200M50 200A50 50 0 1 1 150 200A50 50 0 1 1 50 200M100 200M140 200A40 40 0 1 0 60 200A40 40 0 1 0 140 200" />
    <glyph glyph-name="circle-257"
      unicode="&#x101;"
      horiz-adv-x="200" d=" M100 200M50 200A50 50 0 1 1 150 200A50 50 0 1 1 50 200M100 200M140 200A40 40 0 1 0 60 200A40 40 0 1 0 140 200" />
    <glyph glyph-name="circle-258"
      unicode="&#x102;"
      horiz-adv-x="200" d=" M100 200M50 200A50 50 0 1 1 150 200A50 50 0 1 1 50 200M100 200M140 200A40 40 0 1 0 60 200A40 40 0 1 0 140 200" />
    <glyph glyph-name="circle-259"
      unicode="&#x103;"
      horiz-adv-x="200" d=" M100 200M50 200A50 50 0 1 1 150 200A50 50 0 1 1 50 200M100 200M140 200A40 40 0 1 0 60 200A40 40 0 1 0 140 200" />
    <glyph glyph-name="circle-260"
      unicode="&#x104;"
      horiz-adv-x="200" d=" M100 200M50 200A50 50 0 1 1 150 200A50 50 0 1 1 50 200M100 200M140 200A40 40 0 1 0 60 200A40 40 0 1 0 140 200" />
    <glyph glyph-name="circle-261"
      unicode="&#x105;"
      horiz-adv-x="200" d=" M100 200M50 200A50 50 0 1 1 150 200A50 50 0 1 1 50 200M100 200M140 200A40 40 0 1 0 60 200A40 40 0 1 0 140 200" />
    <glyph glyph-name="circle-262"
      unicode="&#x106;"
      horiz-adv-x="200" d=" M100 200M50 200A50 50 0 1 1 150 200A50 50 0 1 1 50 200M100 200M140 200A40 40 0 1 0 60 200A40 40 0 1 0 140 200" />
    <glyph glyph-name="circle-263"
      unicode="&#x107;"
      horiz-adv-x="200" d=" M100 200M50 200A50 50 0 1 1 150 200A50 50 0 1 1 50 200M100 200M140 200A40 40 0 1 0 60 200A40 40 0 1 0 140 200" />
    <glyph glyph-name="circle-264"
      unicode="&#x108;"
      horiz-adv-x="200" d=" M100 200M50 200A50 50 0 1 1 150 200A50 50 0 1 1 50 200M100 200M140 200A40 40 0 1 0 60 200A40 40 0 1 0 140 200" />
    <glyph glyph-name="circle-265"
      unicode="&#x109;"
      horiz-adv-x="200" d=" M100 200M50 200A50 50 0 1 1 150 200A50 50 0 1 1 50 200M100 200M140 200A40 40 0 1 0 60 200A40 40 0 1 0 140 200" />
    <glyph glyph-name="circle-266"
      unicode="&#x10A;"
      horiz-adv-x="200" d=" M100 200M50 200A50 50 0 1 1 150 200A50 50 0 1 1 50 200M100 200M140 200A40 40 0 1 0 60 200A40 40 0 1 0 140 200" />
    <glyph glyph-name="circle-267"
      unicode="&#x10B;"
      horiz-adv-x="200" d=" M100 200M50 200A50 50 0 1 1 150 200A50 50 0 1 1 50 200M100 200M140 200A40 40 0 1 0 60 200A40 40 0 1 0 140 200" />
    <glyph glyph-name="circle-268"
      unicode="&#x10C;"
      horiz-adv-x="200" d=" M100 200M50 200A50 50 0 1 1 150 200A50 50 0 1 1 50 200M100 200M140 200A40 40 0 1 0 60 200A40 40 0 1 0 140 200" />
    <glyph glyph-name="circle-269"
      unicode="&#x10D;"
      horiz-adv-x="200" d=" M100 200M50 200A50 50 0 1 1 150 200A50 50 0 1 1 50 200M100 200M140 200A40 40 0 1 0 60 200A40 40 0 1 0 140 200" />
    <glyph glyph-name="circle-270"
      unicode="&#x10E;"
      horiz-adv-x="200" d=" M100 200M50 200A50 50 0 1 1 150 200A50 50 0 1 1 50 200M100 200M140 200A40 40 0 1 0 60 200A40 40 0 1 0 140 200" />
    <glyph glyph-name="circle-271"
      unicode="&#x10F;"
      horiz-adv-x="200" d=" M100 200M50 200A50 50 0 1 1 150 200A50 50 0 1 1 50 200M100 200M140 200A40 40 0 1 0 60 200A40 40 0 1 0 140 200" />
    <glyph glyph-name="circle-272"
      unicode="&#x110;"
      horiz-adv-x="200" d=" M100 200M50 200A50 50 0 1 1 150 200A50 50 0 1 1 50 200M100 200M140 200A40 40 0 1 0 60 200A40 40 0 1 0 140 200" />
    <glyph glyph-name="circle-273"
      unicode="&#x111;"
      horiz-adv-x="200" d=" M100 200M50 200A50 50 0 1 1 150 200A50 50 0 1 1 50 200M100 200M140 200A40 40 0 1 0 60 200A40 40 0 1 0 140 200" />
    <glyph glyph-name="circle-274"
      unicode="&#x112;"
      horiz-adv-x="200" d=" M100 200M50 200A50 50 0 1 1 150 200A50 50 0 1 1 50 200M100 200M140 200A40 40 0 1 0 60 200A40 40 0 1 0 140 200" />
    <glyph glyph-name="circle-275"
      unicode="&#x113;"
      horiz-adv-x="200" d=" M100 200M50 200A50 50 0 1 1 150 200A50 50 0 1 1 50 200M100 200M140 200A40 40 0 1 0 60 200A40 40 0 1 0 140 200" />
    <glyph glyph-name="circle-276"
      unicode="&#x114;"
      horiz-adv-x="200" d=" M100 200M50 200A50 50 0 1 1 150 200A50 50 0 1 1 50 200M100 200M140 200A40 40 0 1 0 60 200A40 40 0 1 0 140 200" />
    <glyph glyph-name="circle-277"
      unicode="&#x115;"
      horiz-adv-x="200" d=" M100 200M50 200A50 50 0 1 1 150 200A50 50 0 1 1 50 200M100 200M140 200A40 40 0 1 0 60 200A40 40 0 1 0 140 200" />
    <glyph glyph-name="circle-278"
      unicode="&#x116;"
      horiz-adv-x="200" d=" M100 200M50 200A50 50 0 1 1 150 200A50 50 0 1 1 50 200M100 200M140 200A40 40 0 1 0 60 200A40 40 0 1 0 140 200" />
    <glyph glyph-name="circle-279"
      unicode="&#x117;"
      horiz-adv-x="200" d=" M100 200M50 200A50 50 0 1 1 150 200A50 50 0 1 1 50 200M100 200M140 200A40 40 0 1 0 60 200A40 40 0 1 0 140 200" />
    <glyph glyph-name="circle-280"
      unicode="&#x118;"
      horiz-adv-x="200" d=" M100 200M50 200A50 50 0 1 1 150 200A50 50 0 1 1 50 200M100 200M140 200A40 40 0 1 0 60 200A40 40 0 1 0 140 200" />
    <glyph glyph-name="circle-281"
      unicode="&#x119;"
      horiz-adv-x="200" d=" M100 200M50 200A50 50 0 1 1 150 200A50 50 0 1 1 50 200M100 200M140 200A40 40 0 1 0 60 200A40 40 0 1 0 140 200" />
    <glyph glyph-name="circle-282"
      unicode="&#x11A;"
      horiz-adv-x="200" d=" M100 200M50 200A50 50 0 1 1 150 200A50 50 0 1 1 50 200M100 200M140 200A40 40 0 1 0 60 200A40 40 0 1 0 140 200" />
    <glyph glyph-name="circle-283"
      unicode="&#x11B;"
      horiz-adv-x="200" d=" M100 200M50 200A50 50 0 1 1 150 200A50 50 0 1 1 50 200M100 200M140 200A40 40 0 1 0 60 200A40 40 0 1 0 140 200" />
    <glyph glyph-name="circle-284"
      unicode="&#x11C;"
      horiz-adv-x="200" d=" M100 200M50 200A50 50 0 1 1 150 200A50 50 0 1 1 50 200M100 200M140 200A40 40 0 1 0 60 200A40 40 0 1 0 140 200" />
    <glyph glyph-name="circle-285"
      unicode="&#x11D;"
      horiz-adv-x="200" d=" M100 200M50 200A50 50 0 1 1 150 200A50 50 0 1 1 50 200M100 200M140 200A40 40 0 1 0 60 200A40 40 0 1 0 140 200" />
    <glyph glyph-name="circle-286"
      unicode="&#x11E;"
      horiz-adv-x="200" d=" M100 200M50 200A50 50 0 1 1 150 200A50 50 0 1 1 50 200M100 200M140 200A40 40 0 1 0 60 200A40 40 0 1 0 140 200" />
    <glyph glyph-name="circle-287"
      unicode="&#x11F;"
      horiz-adv-x="200" d=" M100 200M50 200A50 50 0 1 1 150 200A50 50 0 1 1 50 200M100 200M140 200A40 40 0 1 0 60 200A40 40 0 1 0 140 200" />
    <glyph glyph-name="circle-288"
      unicode="&#x120;"
      horiz-adv-x="200" d=" M100 200M50 200A50 50 0 1 1 150 200A50 50 0 1 1 50 200M100 200M140 200A40 40 0 1 0 60 200A40 40 0 1 0 140 200" />
    <glyph glyph-name="circle-289"
      unicode="&#x121;"
      horiz-adv-x="200" d=" M100 200M50 200A50 50 0 1 1 150 200A50 50 0 1 1 50 200M100 200M140 200A40 40 0 1 0 60 200A40 40 0 1 0 140 200" />
    <glyph glyph-name="circle-290"
      unicode="&#x122;"
      horiz-adv-x="200" d=" M100 200M50 200A50 50 0 1 1 150 200A50 50 0 1 1 50 200M100 200M140 200A40 40 0 1 0 60 200A40 40 0 1 0 140 200" />
    <glyph glyph-name="circle-291"
      unicode="&#x123;"
      horiz-adv-x="200" d=" M100 200M50 200A50 50 0 1 1 150 200A50 50 0 1 1 50 200M100 200M140 200A40 40 0 1 0 60 200A40 40 0 1 0 140 200" />
    <glyph glyph-name="circle-292"
      unicode="&#x124;"
      horiz-adv-x="200" d=" M100 200M50 200A50 50 0 1 1 150 200A50 50 0 1 1 50 200M100 200M140 200A40 40 0 1 0 60 200A40 40 0 1 0 140 200" />
    <glyph glyph-name="circle-293"
      unicode="&#x125;"
      horiz-adv-x="200" d=" M100 200M50 200A50 50 0 1 1 150 200A50 50 0 1 1 50 200M100 200M140 200A40 40 0 1 0 60 200A40 40 0 1 0 140 200" />
    <glyph glyph-name="circle-294"
      unicode="&#x126;"
      horiz-adv-x="200" d=" M100 200M50 200A50 50 0 1 1 150 200A50 50 0 1 1 50 200M100 200M140 200A40 40 0 1 0 60 200A40 40 0 1 0 140 200" />
    <glyph glyph-name="circle-295"
      unicode="&#x127;"
      horiz-adv-x="200" d=" M100 200M50 200A50 50 0 1 1 150 200A50 50 0 1 1 50 200M100 200M140 200A40 40 0 1 0 60 200A40 40 0 1 0 140 200" />
    <glyph glyph-name="circle-296"
      unicode="&#x128;"
      horiz-adv-x="200" d=" M100 200M50 200A50 50 0 1 1 150 200A50 50 0 1 1 50 200M100 200M140 200A40 40 0 1 0 60 200A40 40 0 1 0 140 200" />
    <glyph glyph-name="circle-297"
      unicode="&#x129;"
      horiz-adv-x="200" d=" M100 200M50 200A50 50 0 1 1 150 200A50 50 0 1 1 50 200M100 200M140 200A40 40 0 1 0 60 200A40 40 0 1 0 140 200" />
    <glyph glyph-name="circle-298"
      unicode="&#x12A;"
      horiz-adv-x="200" d=" M100 200M50 200A50 50 0 1 1 150 200A50 50 0 1 1 50 200M100 200M140 200A40 40 0 1 0 60 200A40 40 0 1 0 140 200" />
    <glyph glyph-name="circle-299"
      unicode="&#x12B;"
      horiz-adv-x="200" d=" M100 200M50 200A50 50 0 1 1 150 200A50 50 0 1 1 50 200M100 200M140 200A40 40 0 1 0 60 200A40 40 0 1 0 140 200" />
    <glyph glyph-name="circle-300"
      unicode="&#x12C;"
      horiz-adv-x="200" d=" M100 200M50 200A50 50 0 1 1 150 200A50 50 0 1 1 50 200M100 200M140 200A40 40 0 1 0 60 200A40 40 0 1 0 140 200" />
    <glyph glyph-name="circle-301"
      unicode="&#x12D;"
      horiz-adv-x="200" d=" M100 200M50 200A50 50 0 1 1 150 200A50 50 0 1 1 50 200M100 200M140 200A40 40 0 1 0 60 200A40 40 0 1 0 140 200" />
    <glyph glyph-name="circle-302"
      unicode="&#x12E;"
      horiz-adv-x="200" d=" M100 200M50 200A50 50 0 1 1 150 200A50 50 0 1 1 50 200M100 200M140 200A40 40 0 1 0 60 200A40 40 0 1 0 140 200" />
    <glyph glyph-name="circle-303"
      unicode="&#x12F;"
      horiz-adv-x="200" d=" M100 200M50 200A50 50 0 1 1 150 200A50 50 0 1 1 50 200M100 200M140 200A40 40 0 1 0 60 200A40 40 0 1 0 140 200" />
    <glyph glyph-name="circle-304"
      unicode="&#x130;"
      horiz-adv-x="200" d=" M100 200M50 200A50 50 0 1 1 150 200A50 50 0 1 1 50 200M100 200M140 200A40 40 0 1 0 60 200A40 40 0 1 0 140 200" />
    <glyph glyph-name="circle-305"
      unicode="&#x131;"
      horiz-adv-x="200" d=" M100 200M50 200A50 50 0 1 1 150 200A50 50 0 1 1 50 200M100 200M140 200A40 40 0 1 0 60 200A40 40 0 1 0 140 200" />
    <glyph glyph-name="circle-306"
      unicode="&#x132;"
      horiz-adv-x="200" d=" M100 200M50 200A50 50 0 1 1 150 200A50 50 0 1 1 50 200M100 200M140 200A40 40 0 1 0 60 200A40 40 0 1 0 140 200" />
    <glyph glyph-name="circle-307"
      unicode="&#x133;"
      horiz-adv-x="200" d=" M100 200M50 200A50 50 0 1 1 150 200A50 50 0 1 1 50 200M100 200M140 200A40 40 0 1 0 60 200A40 40 0 1 0 140 200" />
    <glyph glyph-name="circle-308"
      unicode="&#x134;"
      horiz-adv-x="200" d=" M100 200M50 200A50 50 0 1 1 150 200A50 50 0 1 1 50 200M100 200M140 200A40 40 0 1 0 60 200A40 40 0 1 0 140 200" />
    <glyph glyph-name="circle-309"
      unicode="&#x135;"
      horiz-adv-x="200" d=" M100 200M50 200A50 50 0 1 1 150 200A50 50 0 1 1 50 200M100 200M140 200A40 40 0 1 0 60 200A40 40 0 1 0 140 200" />
    <glyph glyph-name="circle-310"
      unicode="&#x136;"
      horiz-adv-x="200" d=" M100 200M50 200A50 50 0 1 1 150 200A50 50 0 1 1 50 200M100 200M140 200A40 40 0 1 0 60 200A40 40 0 1 0 140 200" />
    <glyph glyph-name="circle-311"
      unicode="&#x137;"
      horiz-adv-x="200" d=" M100 200M50 200A50 50 0 1 1 150 200A50 50 0 1 1 50 200M100 200M140 200A40 40 0 1 0 60 200A40 40 0 1 0 140 200" />
    <glyph glyph-name="circle-312"
      unicode="&#x138;"
      horiz-adv-x="200" d=" M100 200M50 200A50 50 0 1 1 150 200A50 50 0 1 1 50 200M100 200M140 200A40 40 0 1 0 60 200A40 40 0 1 0 140 200" />
    <glyph glyph-name="circle-313"
      unicode="&#x139;"
      horiz-adv-x="200" d=" M100 200M50 200A50 50 0 1 1 150 200A50 50 0 1 1 50 200M100 200M140 200A40 40 0 1 0 60 200A40 40 0 1 0 140 200" />
    <glyph glyph-name="circle-314"
      unicode="&#x13A;"
      horiz-adv-x="200" d=" M100 200M50 200A50 50 0 1 1 150 200A50 50 0 1 1 50 200M100 200M140 200A40 40 0 1 0 60 200A40 40 0 1 0 140 200" />
    <glyph glyph-name="circle-315"
      unicode="&#x13B;"
      horiz-adv-x="200" d=" M100 200M50 200A50 50 0 1 1 150 200A50 50 0 1 1 50 200M100 200M140 200A40 40 0 1 0 60 200A40 40 0 1 0 140 200" />
    <glyph glyph-name="circle-316"
      unicode="&#x13C;"
      horiz-adv-x="200" d=" M100 200M50 200A50 50 0 1 1 150 200A50 50 0 1 1 50 200M100 200M140 200A40 40 0 1 0 60 200A40 40 0 1 0 140 200" />
    <glyph glyph-name="circle-317"
      unicode="&#x13D;"
      horiz-adv-x="200" d=" M100 200M50 200A50 50 0 1 1 150 200A50 50 0 1 1 50 200M100 200M140 200A40 40 0 1 0 60 200A40 40 0 1 0 140 200" />
    <glyph glyph-name="circle-318"
      unicode="&#x13E;"
      horiz-adv-x="200" d=" M100 200M50 200A50 50 0 1 1 150 200A50 50 0 1 1 50 200M100 200M140 200A40 40 0 1 0 60 200A40 40 0 1 0 140 200" />
    <glyph glyph-name="circle-319"
      unicode="&#x13F;"
      horiz-adv-x="200" d=" M100 200M50 200A50 50 0 1 1 150 200A50 50 0 1 1 50 200M100 200M140 200A40 40 0 1 0 60 200A40 40 0 1 0 140 200" />
    <glyph glyph-name="circle-320"
      unicode="&#x140;"
      horiz-adv-x="200" d=" M100 200M50 200A50 50 0 1 1 150 200A50 50 0 1 1 50 200M100 200M140 200A40 40 0 1 0 60 200A40 40 0 1 0 140 200" />
    <glyph glyph-name="circle-321"
      unicode="&#x141;"
      horiz-adv-x="200" d=" M100 200M50 200A50 50 0 1 1 150 200A50 50 0 1 1 50 200M100 200M140 200A40 40 0 1 0 60 200A40 40 0 1 0 140 200" />
    <glyph glyph-name="circle-322"
      unicode="&#x142;"
      horiz-adv-x="200" d=" M100 200M50 200A50 50 0 1 1 150 200A50 50 0 1 1 50 200M100 200M140 200A40 40 0 1 0 60 200A40 40 0 1 0 140 200" />
    <glyph glyph-name="circle-323"
      unicode="&#x143;"
      horiz-adv-x="200" d=" M100 200M50 200A50 50 0 1 1 150 200A50 50 0 1 1 50 200M100 200M140 200A40 40 0 1 0 60 200A40 40 0 1 0 140 200" />
    <glyph glyph-name="circle-324"
      unicode="&#x144;"
      horiz-adv-x="200" d=" M100 200M50 200A50 50 0 1 1 150 200A50 50 0 1 1 50 200M100 200M140 200A40 40 0 1 0 60 200A40 40 0 1 0 140 200" />
    <glyph glyph-name="circle-325"
      unicode="&#x145;"
      horiz-adv-x="200" d=" M100 200M50 200A50 50 0 1 1 150 200A50 50 0 1 1 50 200M100 200M140 200A40 40 0 1 0 60 200A40 40 0 1 0 140 200" />
    <glyph glyph-name="circle-326"
      unicode="&#x146;"
      horiz-adv-x="200" d=" M100 200M50 200A50 50 0 1 1 150 200A50 50 0 1 1 50 200M100 200M140 200A40 40 0 1 0 60 200A40 40 0 1 0 140 200" />
    <glyph glyph-name="circle-327"
      unicode="&#x147;"
      horiz-adv-x="200" d=" M100 200M50 200A50 50 0 1 1 150 200A50 50 0 1 1 50 200M100 200M140 200A40 40 0 1 0 60 200A40 40 0 1 0 140 200" />
    <glyph glyph-name="circle-328"
      unicode="&#x148;"
      horiz-adv-x="200" d=" M100 200M50 200A50 50 0 1 1 150 200A50 50 0 1 1 50 200M100 200M140 200A40 40 0 1 0 60 200A40 40 0 1 0 140 200" />
    <glyph glyph-name="circle-329"
      unicode="&#x149;"
      horiz-adv-x="200" d=" M100 200M50 200A50 50 0 1 1 150 200A50 50 0 1 1 50 200M100 200M140 200A40 40 0 1 0 60 200A40 40 0 1 0 140 200" />
    <glyph glyph-name="circle-330"
      unicode="&#x14A;"
      horiz-adv-x="200" d=" M100 200M50 200A50 50 0 1 1 150 200A50 50 0 1 1 50 200M100 200M140 200A40 40 0 1 0 60 200A40 40 0 1 0 140 200" />
    <glyph glyph-name="circle-331"
      unicode="&#x14B;"
      horiz-adv-x="200" d=" M100 200M50 200A50 50 0 1 1 150 200A50 50 0 1 1 50 200M100 200M140 200A40 40 0 1 0 60 200A40 40 0 1 0 140 200" />
    <glyph glyph-name="circle-332"
      unicode="&#x14C;"
      horiz-adv-x="200" d=" M100 200M50 200A50 50 0 1 1 150 200A50 50 0 1 1 50 200M100 200M140 200A40 40 0 1 0 60 200A40 40 0 1 0 140 200" />
    <glyph glyph-name="circle-333"
      unicode="&#x14D;"
      horiz-adv-x="200" d=" M100 200M50 200A50 50 0 1 1 150 200A50 50 0 1 1 50 200M100 200M140 200A40 40 0 1 0 60 200A40 40 0 1 0 140 200" />
    <glyph glyph-name="circle-334"
      unicode="&#x14E;"
      horiz-adv-x="200" d=" M100 200M50 200A50 50 0 1 1 150 200A50 50 0 1 1 50 200M100 200M140 200A40 40 0 1 0 60 200A40 40 0 1 0 140 200" />
    <glyph glyph-name="circle-335"
      unicode="&#x14F;"
      horiz-adv-x="200" d=" M100 200M50 200A50 50 0 1 1 150 200A50 50 0 1 1 50 200M100 200M140 200A40 40 0 1 0 60 200A40 40 0 1 0 140 200" />
    <glyph glyph-name="circle-336"
      unicode="&#x150;"
      horiz-adv-x="200" d=" M100 200M50 200A50 50 0 1 1 150 200A50 50 0 1 1 50 200M100 200M140 200A40 40 0 1 0 60 200A40 40 0 1 0 140 200" />
    <glyph glyph-name="circle-337"
      unicode="&#x151;"
      horiz-adv-x="200" d=" M100 200M50 200A50 50 0 1 1 150 200A50 50 0 1 1 50 200M100 200M140 200A40 40 0 1 0 60 200A40 40 0 1 0 140 200" />
    <glyph glyph-name="circle-338"
      unicode="&#x152;"
      horiz-adv-x="200" d=" M100 200M50 200A50 50 0 1 1 150 200A50 50 0 1 1 50 200M100 200M140 200A40 40 0 1 0 60 200A40 40 0 1 0 140 200" />
    <glyph glyph-name="circle-339"
      unicode="&#x153;"
      horiz-adv-x="200" d=" M100 200M50 200A50 50 0 1 1 150 200A50 50 0 1 1 50 200M100 200M140 200A40 40 0 1 0 60 200A40 40 0 1 0 140 200" />
    <glyph glyph-name="circle-340"
      unicode="&#x154;"
      horiz-adv-x="200" d=" M100 200M50 200A50 50 0 1 1 150 200A50 50 0 1 1 50 200M100 200M140 200A40 40 0 1 0 60 200A40 40 0 1 0 140 200" />
    <glyph glyph-name="circle-341"
      unicode="&#x155;"
      horiz-adv-x="200" d=" M100 200M50 200A50 50 0 1 1 150 200A50 50 0 1 1 50 200M100 200M140 200A40 40 0 1 0 60 200A40 40 0 1 0 140 200" />
    <glyph glyph-name="circle-342"
      unicode="&#x156;"
      horiz-adv-x="200" d=" M100 200M50 200A50 50 0 1 1 150 200A50 50 0 1 1 50 200M100 200M140 200A40 40 0 1 0 60 200A40 40 0 1 0 140 200" />
    <glyph glyph-name="circle-343"
      unicode="&#x157;"
      horiz-adv-x="200" d=" M100 200M50 200A50 50 0 1 1 150 200A50 50 0 1 1 50 200M100 200M140 200A40 40 0 1 0 60 200A40 40 0 1 0 140 200" />
    <glyph glyph-name="circle-344"
      unicode="&#x158;"
      horiz-adv-x="200" d=" M100 200M50 200A50 50 0 1 1 150 200A50 50 0 1 1 50 200M100 200M140 200A40 40 0 1 0 60 200A40 40 0 1 0 140 200" />
    <glyph glyph-name="circle-345"
      unicode="&#x159;"
      horiz-adv-x="200" d=" M100 200M50 200A50 50 0 1 1 150 200A50 50 0 1 1 50 200M100 200M140 200A40 40 0 1 0 60 200A40 40 0 1 0 140 200" />
    <glyph glyph-name="circle-346"
      unicode="&#x15A;"
      horiz-adv-x="200" d=" M100 200M50 200A50 50 0 1 1 150 200A50 50 0 1 1 50 200M100 200M140 200A40 40 0 1 0 60 200A40 40 0 1 0 140 200" />
    <glyph glyph-name="circle-347"
      unicode="&#x15B;"
      horiz-adv-x="200" d=" M100 200M50 200A50 50 0 1 1 150 200A50 50 0 1 1 50 200M100 200M140 200A40 40 0 1 0 60 200A40 40 0 1 0 140 200" />
    <glyph glyph-name="circle-348"
      unicode="&#x15C;"
      horiz-adv-x="200" d=" M100 200M50 200A50 50 0 1 1 150 200A50 50 0 1 1 50 200M100 200M140 200A40 40 0 1 0 60 200A40 40 0 1 0 140 200" />
    <glyph glyph-name="circle-349"
      unicode="&#x15D;"
      horiz-adv-x="200" d=" M100 200M50 200A50 50 0 1 1 150 200A50 50 0 1 1 50 200M100 200M140 200A40 40 0 1 0 60 200A40 40 0 1 0 140 200" />
    <glyph glyph-name="circle-350"
      unicode="&#x15E;"
      horiz-adv-x="200" d=" M100 200M50 200A50 50 0 1 1 150 200A50 50 0 1 1 50 200M100 200M140 200A40 40 0 1 0 60 200A40 40 0 1 0 140 200" />
    <glyph glyph-name="circle-351"
      unicode="&#x15F;"
      horiz-adv-x="200" d=" M100 200M50 200A50 50 0 1 1 150 200A50 50 0 1 1 50 200M100 200M140 200A40 40 0 1 0 60 200A40 40 0 1 0 140 200" />
    <glyph glyph-name="circle-352"
      unicode="&#x160;"
      horiz-adv-x="200" d=" M100 200M50 200A50 50 0 1 1 150 200A50 50 0 1 1 50 200M100 200M140 200A40 40 0 1 0 60 200A40 40 0 1 0 140 200" />
    <glyph glyph-name="circle-353"
      unicode="&#x161;"
      horiz-adv-x="200" d=" M100 200M50 200A50 50 0 1 1 150 200A50 50 0 1 1 50 200M100 200M140 200A40 40 0 1 0 60 200A40 40 0 1 0 140 200" />
    <glyph glyph-name="circle-354"
      unicode="&#x162;"
      horiz-adv-x="200" d=" M100 200M50 200A50 50 0 1 1 150 200A50 50 0 1 1 50 200M100 200M140 200A40 40 0 1 0 60 200A40 40 0 1 0 140 200" />
    <glyph glyph-name="circle-355"
      unicode="&#x163;"
      horiz-adv-x="200" d=" M100 200M50 200A50 50 0 1 1 150 200A50 50 0 1 1 50 200M100 200M140 200A40 40 0 1 0 60 200A40 40 0 1 0 140 200" />
    <glyph glyph-name="circle-356"
      unicode="&#x164;"
      horiz-adv-x="200" d=" M100 200M50 200A50 50 0 1 1 150 200A50 50 0 1 1 50 200M100 200M140 200A40 40 0 1 0 60 200A40 40 0 1 0 140 200" />
    <glyph glyph-name="circle-357"
      unicode="&#x165;"
      horiz-adv-x="200" d=" M100 200M50 200A50 50 0 1 1 150 200A50 50 0 1 1 50 200M100 200M140 200A40 40 0 1 0 60 200A40 40 0 1 0 140 200" />
    <glyph glyph-name="circle-358"
      unicode="&#x166;"
      horiz-adv-x="200" d=" M100 200M50 200A50 50 0 1 1 150 200A50 50 0 1 1 50 200M100 200M140 200A40 40 0 1 0 60 200A40 40 0 1 0 140 200" />
    <glyph glyph-name="circle-359"
      unicode="&#x167;"
      horiz-adv-x="200" d=" M100 200M50 200A50 50 0 1 1 150 200A50 50 0 1 1 50 200M100 200M140 200A40 40 0 1 0 60 200A40 40 0 1 0 140 200" />
    <glyph glyph-name="circle-360"
      unicode="&#x168;"
      horiz-adv-x="200" d=" M100 200M50 200A50 50 0 1 1 150 200A50 50 0 1 1 50 200M100 200M140 200A40 40 0 1 0 60 200A40 40 0 1 0 140 200" />
    <glyph glyph-name="circle-361"
      unicode="&#x169;"
      horiz-adv-x="200" d=" M100 200M50 200A50 50 0 1 1 150 200A50 50 0 1 1 50 200M100 200M140 200A40 40 0 1 0 60 200A40 40 0 1 0 140 200" />
    <glyph glyph-name="circle-362"
      unicode="&#x16A;"
      horiz-adv-x="200" d=" M100 200M50 200A50 50 0 1 1 150 200A50 50 0 1 1 50 200M100 200M140 200A40 40 0 1 0 60 200A40 40 0 1 0 140 200" />
    <glyph glyph-name="circle-363"
      unicode="&#x16B;"
      horiz-adv-x="200" d=" M100 200M50 200A50 50 0 1 1 150 200A50 50 0 1 1 50 200M100 200M140 200A40 40 0 1 0 60 200A40 40 0 1 0 140 200" />
    <glyph glyph-name="circle-364"
      unicode="&#x16C;"
      horiz-adv-x="200" d=" M100 200M50 200A50 50 0 1 1 150 200A50 50 0 1 1 50 200M100 200M140 200A40 40 0 1 0 60 200A40 40 0 1 0 140 200" />
    <glyph glyph-name="circle-365"
      unicode="&#x16D;"
      horiz-adv-x="200" d=" M100 200M50 200A50 50 0 1 1 150 200A50 50 0 1 1 50 200M100 200M140 200A40 40 0 1 0 60 200A40 40 0 1 0 140 200" />
    <glyph glyph-name="circle-366"
      unicode="&#x16E;"
      horiz-adv-x="200" d=" M100 200M50 200A50 50 0 1 1 150 200A50 50 0 1 1 50 200M100 200M140 200A40 40 0 1 0 60 200A40 40 0 1 0 140 200" />
    <glyph glyph-name="circle-367"
      unicode="&#x16F;"
      horiz-adv-x="200" d=" M100 200M50 200A50 50 0 1 1 150 200A50 50 0 1 1 50 200M100 200M140 200A40 40 0 1 0 60 200A40 40 0 1 0 140 200" />
    <glyph glyph-name="circle-368"
      unicode="&#x170;"
      horiz-adv-x="200" d=" M100 200M50 200A50 50 0 1 1 150 200A50 50 0 1 1 50 200M100 200M140 200A40 40 0 1 0 60 200A40 40 0 1 0 140 200" />
    <glyph glyph-name="circle-369"
      unicode="&#x171;"
      horiz-adv-x="200" d=" M100 200M50 200A50 50 0 1 1 150 200A50 50 0 1 1 50 200M100 200M140 200A40 40 0 1 0 60 200A40 40 0 1 0 140 200" />
    <glyph glyph-name="circle-370"
      unicode="&#x172;"
      horiz-adv-x="200" d=" M100 200M50 200A50 50 0 1 1 150 200A50 50 0 1 1 50 200M100 200M140 200A40 40 0 1 0 60 200A40 40 0 1 0 140 200" />
    <glyph glyph-name="circle-371"
      unicode="&#x173;"
      horiz-adv-x="200" d=" M100 200M50 200A50 50 0 1 1 150 200A50 50 0 1 1 50 200M100 200M140 200A40 40 0 1 0 60 200A40 40 0 1 0 140 200" />
    <glyph glyph-name="circle-372"
      unicode="&#x174;"
      horiz-adv-x="200" d=" M100 200M50 200A50 50 0 1 1 150 200A50 50 0 1 1 50 200M100 200M140 200A40 40 0 1 0 60 200A40 40 0 1 0 140 200" />
    <glyph glyph-name="circle-373"
      unicode="&#x175;"
      horiz-adv-x="200" d=" M100 200M50 200A50 50 0 1 1 150 200A50 50 0 1 1 50 200M100 200M140 200A40 40 0 1 0 60 200A40 40 0 1 0 140 200" />
    <glyph glyph-name="circle-374"
      unicode="&#x176;"
      horiz-adv-x="200" d=" M100 200M50 200A50 50 0 1 1 150 200A50 50 0 1 1 50 200M100 200M140 200A40 40 0 1 0 60 200A40 40 0 1 0 140 200" />
    <glyph glyph-name="circle-375"
      unicode="&#x177;"
      horiz-adv-x="200" d=" M100 200M50 200A50 50 0 1 1 150 200A50 50 0 1 1 50 200M100 200M140 200A40 40 0 1 0 60 200A40 40 0 1 0 140 200" />
    <glyph glyph-name="circle-376"
      unicode="&#x178;"
      horiz-adv-x="200" d=" M100 200M50 200A50 50 0 1 1 150 200A50 50 0 1 1 50 200M100 200M140 200A40 40 0 1 0 60 200A40 40 0 1 0 140 200" />
    <glyph glyph-name="circle-377"
      unicode="&#x179;"
      horiz-adv-x="200" d=" M100 200M50 200A50 50 0 1 1 150 200A50 50 0 1 1 50 200M100 200M140 200A40 40 0 1 0 60 200A40 40 0 1 0 140 200" />
    <glyph glyph-name="circle-378"
      unicode="&#x17A;"
      horiz-adv-x="200" d=" M100 200M50 200A50 50 0 1 1 150 200A50 50 0 1 1 50 200M100 200M140 200A40 40 0 1 0 60 200A40 40 0 1 0 140 200" />
    <glyph glyph-name="circle-379"
      unicode="&#x17B;"
      horiz-adv-x="200" d=" M100 200M50 200A50 50 0 1 1 150 200A50 50 0 1 1 50 200M100 200M140 200A40 40 0 1 0 60 200A40 40 0 1 0 140 200" />
    <glyph glyph-name="circle-380"
      unicode="&#x17C;"
      horiz-adv-x="200" d=" M100 200M50 200A50 50 0 1 1 150 200A50 50 0 1 1 50 200M100 200M140 200A40 40 0 1 0 60 200A40 40 0 1 0 140 200" />
    <glyph glyph-name="circle-381"
      unicode="&#x17D;"
      horiz-adv-x="200" d=" M100 200M50 200A50 50 0 1 1 150 200A50 50 0 1 1 50 200M100 200M140 200A40 40 0 1 0 60 200A40 40 0 1 0 140 200" />
    <glyph glyph-name="circle-382"
      unicode="&#x17E;"
      horiz-adv-x="200" d=" M100 200M50 200A50 50 0 1 1 150 200A50 50 0 1 1 50 200M100 200M140 200A40 40 0 1 0 60 200A40 40 0 1 0 140 200" />
    <glyph glyph-name="circle-383"
      unicode="&#x17F;"
      horiz-adv-x="200" d=" M100 200M50 200A50 50 0 1 1 150 200A50 50 0 1 1 50 200M100 200M140 200A40 40 0 1 0 60 200A40 40 0 1 0 140 200" />
    <glyph glyph-name="circle-384"
      unicode="&#x180;"
      horiz-adv-x="200" d=" M100 200M50 200A50 50 0 1 1 150 200A50 50 0 1 1 50 200M100 200M140 200A40 40 0 1 0 60 200A40 40 0 1 0 140 200" />
    <glyph glyph-name="circle-385"
      unicode="&#x181;"
      horiz-adv-x="200" d=" M100 200M50 200A50 50 0 1 1 150 200A50 50 0 1 1 50 200M100 200M140 200A40 40 0 1 0 60 200A40 40 0 1 0 140 200" />
    <glyph glyph-name="circle-386"
      unicode="&#x182;"
      horiz-adv-x="200" d=" M100 200M50 200A50 50 0 1 1 150 200A50 50 0 1 1 50 200M100 200M140 200A40 40 0 1 0 60 200A40 40 0 1 0 140 200" />
    <glyph glyph-name="circle-387"
      unicode="&#x183;"
      horiz-adv-x="200" d=" M100 200M50 200A50 50 0 1 1 150 200A50 50 0 1 1 50 200M100 200M140 200A40 40 0 1 0 60 200A40 40 0 1 0 140 200" />
    <glyph glyph-name="circle-388"
      unicode="&#x184;"
      horiz-adv-x="200" d=" M100 200M50 200A50 50 0 1 1 150 200A50 50 0 1 1 50 200M100 200M140 200A40 40 0 1 0 60 200A40 40 0 1 0 140 200" />
    <glyph glyph-name="circle-389"
      unicode="&#x185;"
      horiz-adv-x="200" d=" M100 200M50 200A50 50 0 1 1 150 200A50 50 0 1 1 50 200M100 200M140 200A40 40 0 1 0 60 200A40 40 0 1 0 140 200" />
    <glyph glyph-name="circle-390"
      unicode="&#x186;"
      horiz-adv-x="200" d=" M100 200M50 200A50 50 0 1 1 150 200A50 50 0 1 1 50 200M100 200M140 200A40 40 0 1 0 60 200A40 40 0 1 0 140 200" />
    <glyph glyph-name="circle-391"
      unicode="&#x187;"
      horiz-adv-x="200" d=" M100 200M50 200A50 50 0 1 1 150 200A50 50 0 1 1 50 200M100 200M140 200A40 40 0 1 0 60 200A40 40 0 1 0 140 200" />
    <glyph glyph-name="circle-392"
      unicode="&#x188;"
      horiz-adv-x="200" d=" M100 200M50 200A50 50 0 1 1 150 200A50 50 0 1 1 50 200M100 200M140 200A40 40 0 1 0 60 200A40 40 0 1 0 140 200" />
    <glyph glyph-name="circle-393"
      unicode="&#x189;"
      horiz-adv-x="200" d=" M100 200M50 200A50 50 0 1 1 150 200A50 50 0 1 1 50 200M100 200M140 200A40 40 0 1 0 60 200A40 40 0 1 0 140 200" />
    <glyph glyph-name="circle-394"
      unicode="&#x18A;"
      horiz-adv-x="200" d=" M100 200M50 200A50 50 0 1 1 150 200A50 50 0 1 1 50 200M100 200M140 200A40 40 0 1 0 60 200A40 40 0 1 0 140 200" />
    <glyph glyph-name="circle-395"
      unicode="&#x18B;"
      horiz-adv-x="200" d=" M100 200M50 200A50 50 0 1 1 150 200A50 50 0 1 1 50 200M100 200M140 200A40 40 0 1 0 60 200A40 40 0 1 0 140 200" />
    <glyph glyph-name="circle-396"
      unicode="&#x18C;"
      horiz-adv-x="200" d=" M100 200M50 200A50 50 0 1 1 150 200A50 50 0 1 1 50 200M100 200M140 200A40 40 0 1 0 60 200A40 40 0 1 0 140 200" />
    <glyph glyph-name="circle-397"
      unicode="&#x18D;"
      horiz-adv-x="200" d=" M100 200M50 200A50 50 0 1 1 150 200A50 50 0 1 1 50 200M100 200M140 200A40 40 0 1 0 60 200A40 40 0 1 0 140 200" />
    <glyph glyph-name="circle-398"
      unicode="&#x18E;"
      horiz-adv-x="200" d=" M100 200M50 200A50 50 0 1 1 150 200A50 50 0 1 1 50 200M100 200M140 200A40 40 0 1 0 60 200A40 40 0 1 0 140 200" />
    <glyph glyph-name="circle-399"
      unicode="&#x18F;"
      horiz-adv-x="200" d=" M100 200M50 200A50 50 0 1 1 150 200A50 50 0 1 1 50 200M100 200M140 200A40 40 0 1 0 60 200A40 40 0 1 0 140 200" />
    <glyph glyph-name="circle-400"
      unicode="&#x190;"
      horiz-adv-x="200" d=" M100 200M50 200A50 50 0 1 1 150 200A50 50 0 1 1 50 200M100 200M140 200A40 40 0 1 0 60 200A40 40 0 1 0 140 200" />
    <glyph glyph-name="circle-401"
      unicode="&#x191;"
      horiz-adv-x="200" d=" M100 200M50 200A50 50 0 1 1 150 200A50 50 0 1 1 50 200M100 200M140 200A40 40 0 1 0 60 200A40 40 0 1 0 140 200" />
    <glyph glyph-name="circle-402"
      unicode="&#x192;"
      horiz-adv-x="200" d=" M100 200M50 200A50 50 0 1 1 150 200A50 50 0 1 1 50 200M100 200M140 200A40 40 0 1 0 60 200A40 40 0 1 0 140 200" />
    <glyph glyph-name="circle-403"
      unicode="&#x193;"
      horiz-adv-x="200" d=" M100 200M50 200A50 50 0 1 1 150 200A50 50 0 1 1 50 200M100 200M140 200A40 40 0 1 0 60 200A40 40 0 1 0 140 200" />
    <glyph glyph-name="circle-404"
      unicode="&#x194;"
      horiz-adv-x="200" d=" M100 200M50 200A50 50 0 1 1 150 200A50 50 0 1 1 50 200M100 200M140 200A40 40 0 1 0 60 200A40 40 0 1 0 140 200" />
    <glyph glyph-name="circle-405"
      unicode="&#x195;"
      horiz-adv-x="200" d=" M100 200M50 200A50 50 0 1 1 150 200A50 50 0 1 1 50 200M100 200M140 200A40 40 0 1 0 60 200A40 40 0 1 0 140 200" />
    <glyph glyph-name="circle-406"
      unicode="&#x196;"
      horiz-adv-x="200" d=" M100 200M50 200A50 50 0 1 1 150 200A50 50 0 1 1 50 200M100 200M140 200A40 40 0 1 0 60 200A40 40 0 1 0 140 200" />
    <glyph glyph-name="circle-407"
      unicode="&#x197;"
      horiz-adv-x="200" d=" M100 200M50 200A50 50 0 1 1 150 200A50 50 0 1 1 50 200M100 200M140 200A40 40 0 1 0 60 200A40 40 0 1 0 140 200" />
    <glyph glyph-name="circle-408"
      unicode="&#x198;"
      horiz-adv-x="200" d=" M100 200M50 200A50 50 0 1 1 150 200A50 50 0 1 1 50 200M100 200M140 200A40 40 0 1 0 60 200A40 40 0 1 0 140 200" />
    <glyph glyph-name="circle-409"
      unicode="&#x199;"
      horiz-adv-x="200" d=" M100 200M50 200A50 50 0 1 1 150 200A50 50 0 1 1 50 200M100 200M140 200A40 40 0 1 0 60 200A40 40 0 1 0 140 200" />
    <glyph glyph-name="circle-410"
      unicode="&#x19A;"
      horiz-adv-x="200" d=" M100 200M50 200A50 50 0 1 1 150 200A50 50 0 1 1 50 200M100 200M140 200A40 40 0 1 0 60 200A40 40 0 1 0 140 200" />
    <glyph glyph-name="circle-411"
      unicode="&#x19B;"
      horiz-adv-x="200" d=" M100 200M50 200A50 50 0 1 1 150 200A50 50 0 1 1 50 200M100 200M140 200A40 40 0 1 0 60 200A40 40 0 1 0 140 200" />
    <glyph glyph-name="circle-412"
      unicode="&#x19C;"
      horiz-adv-x="200" d=" M100 200M50 200A50 50 0 1 1 150 200A50 50 0 1 1 50 200M100 200M140 200A40 40 0 1 0 60 200A40 40 0 1 0 140 200" />
    <glyph glyph-name="circle-413"
      unicode="&#x19D;"
      horiz-adv-x="200" d=" M100 200M50 200A50 50 0 1 1 150 200A50 50 0 1 1 50 200M100 200M140 200A40 40 0 1 0 60 200A40 40 0 1 0 140 200" />
    <glyph glyph-name="circle-414"
      unicode="&#x19E;"
      horiz-adv-x="200" d=" M100 200M50 200A50 50 0 1 1 150 200A50 50 0 1 1 50 200M100 200M140 200A40 40 0 1 0 60 200A40 40 0 1 0 140 200" />
    <glyph glyph-name="circle-415"
      unicode="&#x19F;"
      horiz-adv-x="200" d=" M100 200M50 200A50 50 0 1 1 150 200A50 50 0 1 1 50 200M100 200M140 200A40 40 0 1 0 60 200A40 40 0 1 0 140 200" />
    <glyph glyph-name="circle-416"
      unicode="&#x1A0;"
      horiz-adv-x="200" d=" M100 200M50 200A50 50 0 1 1 150 200A50 50 0 1 1 50 200M100 200M140 200A40 40 0 1 0 60 200A40 40 0 1 0 140 200" />
    <glyph glyph-name="circle-417"
      unicode="&#x1A1;"
      horiz-adv-x="200" d=" M100 200M50 200A50 50 0 1 1 150 200A50 50 0 1 1 50 200M100 200M140 200A40 40 0 1 0 60 200A40 40 0 1 0 140 200" />
    <glyph glyph-name="circle-418"
      unicode="&#x1A2;"
      horiz-adv-x="200" d=" M100 200M50 200A50 50 0 1 1 150 200A50 50 0 1 1 50 200M100 200M140 200A40 40 0 1 0 60 200A40 40 0 1 0 140 200" />
    <glyph glyph-name="circle-419"
      unicode="&#x1A3;"
      horiz-adv-x="200" d=" M100 200M50 200A50 50 0 1 1 150 200A50 50 0 1 1 50 200M100 200M140 200A40 40 0 1 0 60 200A40 40 0 1 0 140 200" />
    <glyph glyph-name="circle-420"
      unicode="&#x1A4;"
      horiz-adv-x="200" d=" M100 200M50 200A50 50 0 1 1 150 200A50 50 0 1 1 50 200M100 200M140 200A40 40 0 1 0 60 200A40 40 0 1 0 140 200" />
    <glyph glyph-name="circle-421"
      unicode="&#x1A5;"
      horiz-adv-x="200" d=" M100 200M50 200A50 50 0 1 1 150 200A50 50 0 1 1 50 200M100 200M140 200A40 40 0 1 0 60 200A40 40 0 1 0 140 200" />
    <glyph glyph-name="circle-422"
      unicode="&#x1A6;"
      horiz-adv-x="200" d=" M100 200M50 200A50 50 0 1 1 150 200A50 50 0 1 1 50 200M100 200M140 200A40 40 0 1 0 60 200A40 40 0 1 0 140 200" />
    <glyph glyph-name="circle-423"
      unicode="&#x1A7;"
      horiz-adv-x="200" d=" M100 200M50 200A50 50 0 1 1 150 200A50 50 0 1 1 50 200M100 200M140 200A40 40 0 1 0 60 200A40 40 0 1 0 140 200" />
    <glyph glyph-name="circle-424"
      unicode="&#x1A8;"
      horiz-adv-x="200" d=" M100 200M50 200A50 50 0 1 1 150 200A50 50 0 1 1 50 200M100 200M140 200A40 40 0 1 0 60 200A40 40 0 1 0 140 200" />
    <glyph glyph-name="circle-425"
      unicode="&#x1A9;"
      horiz-adv-x="200" d=" M100 200M50 200A50 50 0 1 1 150 200A50 50 0 1 1 50 200M100 200M140 200A40 40 0 1 0 60 200A40 40 0 1 0 140 200" />
    <glyph glyph-name="circle-426"
      unicode="&#x1AA;"
      horiz-adv-x="200" d=" M100 200M50 200A50 50 0 1 1 150 200A50 50 0 1 1 50 200M100 200M140 200A40 40 0 1 0 60 200A40 40 0 1 0 140 200" />
    <glyph glyph-name="circle-427"
      unicode="&#x1AB;"
      horiz-adv-x="200" d=" M100 200M50 200A50 50 0 1 1 150 200A50 50 0 1 1 50 200M100 200M140 200A40 40 0 1 0 60 200A40 40 0 1 0 140 200" />
    <glyph glyph-name="circle-428"
      unicode="&#x1AC;"
      horiz-adv-x="200" d=" M100 200M50 200A50 50 0 1 1 150 200A50 50 0 1 1 50 200M100 200M140 200A40 40 0 1 0 60 200A40 40 0 1 0 140 200" />
    <glyph glyph-name="circle-429"
      unicode="&#x1AD;"
      horiz-adv-x="200" d=" M100 200M50 200A50 50 0 1 1 150 200A50 50 0 1 1 50 200M100 200M140 200A40 40 0 1 0 60 200A40 40 0 1 0 140 200" />
    <glyph glyph-name="circle-430"
      unicode="&#x1AE;"
      horiz-adv-x="200" d=" M100 200M50 200A50 50 0 1 1 150 200A50 50 0 1 1 50 200M100 200M140 200A40 40 0 1 0 60 200A40 40 0 1 0 140 200" />
    <glyph glyph-name="circle-431"
      unicode="&#x1AF;"
      horiz-adv-x="200" d=" M100 200M50 200A50 50 0 1 1 150 200A50 50 0 1 1 50 200M100 200M140 200A40 40 0 1 0 60 200A40 40 0 1 0 140 200" />
    <glyph glyph-name="circle-432"
      unicode="&#x1B0;"
      horiz-adv-x="200" d=" M100 200M50 200A50 50 0 1 1 150 200A50 50 0 1 1 50 200M100 200M140 200A40 40 0 1 0 60 200A40 40 0 1 0 140 200" />
    <glyph glyph-name="circle-433"
      unicode="&#x1B1;"
      horiz-adv-x="200" d=" M100 200M50 200A50 50 0 1 1 150 200A50 50 0 1 1 50 200M100 200M140 200A40 40 0 1 0 60 200A40 40 0 1 0 140 200" />
    <glyph glyph-name="circle-434"
      unicode="&#x1B2;"
      horiz-adv-x="200" d=" M100 200M50 200A50 50 0 1 1 150 200A50 50 0 1 1 50 200M100 200M140 200A40 40 0 1 0 60 200A40 40 0 1 0 140 200" />
    <glyph glyph-name="circle-435"
      unicode="&#x1B3;"
      horiz-adv-x="200" d=" M100 200M50 200A50 50 0 1 1 150 200A50 50 0 1 1 50 200M100 200M140 200A40 40 0 1 0 60 200A40 40 0 1 0 140 200" />
    <glyph glyph-name="circle-436"
      unicode="&#x1B4;"
      horiz-adv-x="200" d=" M100 200M50 200A50 50 0 1 1 150 200A50 50 0 1 1 50 200M100 200M140 200A40 40 0 1 0 60 200A40 40 0 1 0 140 200" />
    <glyph glyph-name="circle-437"
      unicode="&#x1B5;"
      horiz-adv-x="200" d=" M100 200M50 200A50 50 0 1 1 150 200A50 50 0 1 1 50 200M100 200M140 200A40 40 0 1 0 60 200A40 40 0 1 0 140 200" />
    <glyph glyph-name="circle-438"
      unicode="&#x1B6;"
      horiz-adv-x="200" d=" M100 200M50 200A50 50 0 1 1 150 200A50 50 0 1 1 50 200M100 200M140 200A40 40 0 1 0 60 200A40 40 0 1 0 140 200" />
    <glyph glyph-name="circle-439"
      unicode="&#x1B7;"
      horiz-adv-x="200" d=" M100 200M50 200A50 50 0 1 1 150 200A50 50 0 1 1 50 200M100 200M140 200A40 40 0 1 0 60 200A40 40 0 1 0 140 200" />
    <glyph glyph-name="circle-440"
      unicode="&#x1B8;"
      horiz-adv-x="200" d=" M100 200M50 200A50 50 0 1 1 150 200A50 50 0 1 1 50 200M100 200M140 200A40 40 0 1 0 60 200A40 40 0 1 0 140 200" />
    <glyph glyph-name="circle-441"
      unicode="&#x1B9;"
      horiz-adv-x="200" d=" M100 200M50 200A50 50 0 1 1 150 200A50 50 0 1 1 50 200M100 200M140 200A40 40 0 1 0 60 200A40 40 0 1 0 140 200" />
    <glyph glyph-name="circle-442"
      unicode="&#x1BA;"
      horiz-adv-x="200" d=" M100 200M50 200A50 50 0 1 1 150 200A50 50 0 1 1 50 200M100 200M140 200A40 40 0 1 0 60 200A40 40 0 1 0 140 200" />
    <glyph glyph-name="circle-443"
      unicode="&#x1BB;"
      horiz-adv-x="200" d=" M100 200M50 200A50 50 0 1 1 150 200A50 50 0 1 1 50 200M100 200M140 200A40 40 0 1 0 60 200A40 40 0 1 0 140 200" />
    <glyph glyph-name="circle-444"
      unicode="&#x1BC;"
      horiz-adv-x="200" d=" M100 200M50 200A50 50 0 1 1 150 200A50 50 0 1 1 50 200M100 200M140 200A40 40 0 1 0 60 200A40 40 0 1 0 140 200" />
    <glyph glyph-name="circle-445"
      unicode="&#x1BD;"
      horiz-adv-x="200" d=" M100 200M50 200A50 50 0 1 1 150 200A50 50 0 1 1 50 200M100 200M140 200A40 40 0 1 0 60 200A40 40 0 1 0 140 200" />
    <glyph glyph-name="circle-446"
      unicode="&#x1BE;"
      horiz-adv-x="200" d=" M100 200M50 200A50 50 0 1 1 150 200A50 50 0 1 1 50 200M100 200M140 200A40 40 0 1 0 60 200A40 40 0 1 0 140 200" />
    <glyph glyph-name="circle-447"
      unicode="&#x1BF;"
      horiz-adv-x="200" d=" M100 200M50 200A50 50 0 1 1 150 200A50 50 0 1 1 50 200M100 200M140 200A40 40 0 1 0 60 200A40 40 0 1 0 140 200" />
    <glyph glyph-name="circle-448"
      unicode="&#x1C0;"
      horiz-adv-x="200" d=" M100 200M50 200A50 50 0 1 1 150 200A50 50 0 1 1 50 200M100 200M140 200A40 40 0 1 0 60 200A40 40 0 1 0 140 200" />
    <glyph glyph-name="circle-449"
      unicode="&#x1C1;"
      horiz-adv-x="200" d=" M100 200M50 200A50 50 0 1 1 150 200A50 50 0 1 1 50 200M100 200M140 200A40 40 0 1 0 60 200A40 40 0 1 0 140 200" />
    <glyph glyph-name="circle-450"
      unicode="&#x1C2;"
      horiz-adv-x="200" d=" M100 200M50 200A50 50 0 1 1 150 200A50 50 0 1 1 50 200M100 200M140 200A40 40 0 1 0 60 200A40 40 0 1 0 140 200" />
    <glyph glyph-name="circle-451"
      unicode="&#x1C3;"
      horiz-adv-x="200" d=" M100 200M50 200A50 50 0 1 1 150 200A50 50 0 1 1 50 200M100 200M140 200A40 40 0 1 0 60 200A40 40 0 1 0 140 200" />
    <glyph glyph-name="circle-452"
      unicode="&#x1C4;"
      horiz-adv-x="200" d=" M100 200M50 200A50 50 0 1 1 150 200A50 50 0 1 1 50 200M100 200M140 200A40 40 0 1 0 60 200A40 40 0 1 0 140 200" />
    <glyph glyph-name="circle-453"
      unicode="&#x1C5;"
      horiz-adv-x="200" d=" M100 200M50 200A50 50 0 1 1 150 200A50 50 0 1 1 50 200M100 200M140 200A40 40 0 1 0 60 200A40 40 0 1 0 140 200" />
    <glyph glyph-name="circle-454"
      unicode="&#x1C6;"
      horiz-adv-x="200" d=" M100 200M50 200A50 50 0 1 1 150 200A50 50 0 1 1 50 200M100 200M140 200A40 40 0 1 0 60 200A40 40 0 1 0 140 200" />
    <glyph glyph-name="circle-455"
      unicode="&#x1C7;"
      horiz-adv-x="200" d=" M100 200M50 200A50 50 0 1 1 150 200A50 50 0 1 1 50 200M100 200M140 200A40 40 0 1 0 60 200A40 40 0 1 0 140 200" />
    <glyph glyph-name="circle-456"
      unicode="&#x1C8;"
      horiz-adv-x="200" d=" M100 200M50 200A50 50 0 1 1 150 200A50 50 0 1 1 50 200M100 200M140 200A40 40 0 1 0 60 200A40 40 0 1 0 140 200" />
    <glyph glyph-name="circle-457"
      unicode="&#x1C9;"
      horiz-adv-x="200" d=" M100 200M50 200A50 50 0 1 1 150 200A50 50 0 1 1 50 200M100 200M140 200A40 40 0 1 0 60 200A40 40 0 1 0 140 200" />
    <glyph glyph-name="circle-458"
      unicode="&#x1CA;"
      horiz-adv-x="200" d=" M100 200M50 200A50 50 0 1 1 150 200A50 50 0 1 1 50 200M100 200M140 200A40 40 0 1 0 60 200A40 40 0 1 0 140 200" />
    <glyph glyph-name="circle-459"
      unicode="&#x1CB;"
      horiz-adv-x="200" d=" M100 200M50 200A50 50 0 1 1 150 200A50 50 0 1 1 50 200M100 200M140 200A40 40 0 1 0 60 200A40 40 0 1 0 140 200" />
    <glyph glyph-name="circle-460"
      unicode="&#x1CC;"
      horiz-adv-x="200" d=" M100 200M50 200A50 50 0 1 1 150 200A50 50 0 1 1 50 200M100 200M140 200A40 40 0 1 0 60 200A40 40 0 1 0 140 200" />
    <glyph glyph-name="circle-461"
      unicode="&#x1CD;"
      horiz-adv-x="200" d=" M100 200M50 200A50 50 0 1 1 150 200A50 50 0 1 1 50 200M100 200M140 200A40 40 0 1 0 60 200A40 40 0 1 0 140 200" />
    <glyph glyph-name="circle-462"
      unicode="&#x1CE;"
      horiz-adv-x="200" d=" M100 200M50 200A50 50 0 1 1 150 200A50 50 0 1 1 50 200M100 200M140 200A40 40 0 1 0 60 200A40 40 0 1 0 140 200" />
    <glyph glyph-name="circle-463"
      unicode="&#x1CF;"
      horiz-adv-x="200" d=" M100 200M50 200A50 50 0 1 1 150 200A50 50 0 1 1 50 200M100 200M140 200A40 40 0 1 0 60 200A40 40 0 1 0 140 200" />
    <glyph glyph-name="circle-464"
      unicode="&#x1D0;"
      horiz-adv-x="200" d=" M100 200M50 200A50 50 0 1 1 150 200A50 50 0 1 1 50 200M100 200M140 200A40 40 0 1 0 60 200A40 40 0 1 0 140 200" />
    <glyph glyph-name="circle-465"
      unicode="&#x1D1;"
      horiz-adv-x="200" d=" M100 200M50 200A50 50 0 1 1 150 200A50 50 0 1 1 50 200M100 200M140 200A40 40 0 1 0 60 200A40 40 0 1 0 140 200" />
    <glyph glyph-name="circle-466"
      unicode="&#x1D2;"
      horiz-adv-x="200" d=" M100 200M50 200A50 50 0 1 1 150 200A50 50 0 1 1 50 200M100 200M140 200A40 40 0 1 0 60 200A40 40 0 1 0 140 200" />
    <glyph glyph-name="circle-467"
      unicode="&#x1D3;"
      horiz-adv-x="200" d=" M100 200M50 200A50 50 0 1 1 150 200A50 50 0 1 1 50 200M100 200M140 200A40 40 0 1 0 60 200A40 40 0 1 0 140 200" />
    <glyph glyph-name="circle-468"
      unicode="&#x1D4;"
      horiz-adv-x="200" d=" M100 200M50 200A50 50 0 1 1 150 200A50 50 0 1 1 50 200M100 200M140 200A40 40 0 1 0 60 200A40 40 0 1 0 140 200" />
    <glyph glyph-name="circle-469"
      unicode="&#x1D5;"
      horiz-adv-x="200" d=" M100 200M50 200A50 50 0 1 1 150 200A50 50 0 1 1 50 200M100 200M140 200A40 40 0 1 0 60 200A40 40 0 1 0 140 200" />
    <glyph glyph-name="circle-470"
      unicode="&#x1D6;"
      horiz-adv-x="200" d=" M100 200M50 200A50 50 0 1 1 150 200A50 50 0 1 1 50 200M100 200M140 200A40 40 0 1 0 60 200A40 40 0 1 0 140 200" />
    <glyph glyph-name="circle-471"
      unicode="&#x1D7;"
      horiz-adv-x="200" d=" M100 200M50 200A50 50 0 1 1 150 200A50 50 0 1 1 50 200M100 200M140 200A40 40 0 1 0 60 200A40 40 0 1 0 140 200" />
    <glyph glyph-name="circle-472"
      unicode="&#x1D8;"
      horiz-adv-x="200" d=" M100 200M50 200A50 50 0 1 1 150 200A50 50 0 1 1 50 200M100 200M140 200A40 40 0 1 0 60 200A40 40 0 1 0 140 200" />
    <glyph glyph-name="circle-473"
      unicode="&#x1D9;"
      horiz-adv-x="200" d=" M100 200M50 200A50 50 0 1 1 150 200A50 50 0 1 1 50 200M100 200M140 200A40 40 0 1 0 60 200A40 40 0 1 0 140 200" />
    <glyph glyph-name="circle-474"
      unicode="&#x1DA;"
      horiz-adv-x="200" d=" M100 200M50 200A50 50 0 1 1 150 200A50 50 0 1 1 50 200M100 200M140 200A40 40 0 1 0 60 200A40 40 0 1 0 140 200" />
    <glyph glyph-name="circle-475"
      unicode="&#x1DB;"
      horiz-adv-x="200" d=" M100 200M50 200A50 50 0 1 1 150 200A50 50 0 1 1 50 200M100 200M140 200A40 40 0 1 0 60 200A40 40 0 1 0 140 200" />
    <glyph glyph-name="circle-476"
      unicode="&#x1DC;"
      horiz-adv-x="200" d=" M100 200M50 200A50 50 0 1 1 150 200A50 50 0 1 1 50 200M100 200M140 200A40 40 0 1 0 60 200A40 40 0 1 0 140 200" />
    <glyph glyph-name="circle-477"
      unicode="&#x1DD;"
      horiz-adv-x="200" d=" M100 200M50 200A50 50 0 1 1 150 200A50 50 0 1 1 50 200M100 200M140 200A40 40 0 1 0 60 200A40 40 0 1 0 140 200" />
    <glyph glyph-name="circle-478"
      unicode="&#x1DE;"
      horiz-adv-x="200" d=" M100 200M50 200A50 50 0 1 1 150 200A50 50 0 1 1 50 200M100 200M140 200A40 40 0 1 0 60 200A40 40 0 1 0 140 200" />
    <glyph glyph-name="circle-479"
      unicode="&#x1DF;"
      horiz-adv-x="200" d=" M100 200M50 200A50 50 0 1 1 150 200A50 50 0 1 1 50 200M100 200M140 200A40 40 0 1 0 60 200A40 40 0 1 0 140 200" />
    <glyph glyph-name="circle-480"
      unicode="&#x1E0;"
      horiz-adv-x="200" d=" M100 200M50 200A50 50 0 1 1 150 200A50 50 0 1 1 50 200M100 200M140 200A40 40 0 1 0 60 200A40 40 0 1 0 140 200" />
    <glyph glyph-name="circle-481"
      unicode="&#x1E1;"
      horiz-adv-x="200" d=" M100 200M50 200A50 50 0 1 1 150 200A50 50 0 1 1 50 200M100 200M140 200A40 40 0 1 0 60 200A40 40 0 1 0 140 200" />
    <glyph glyph-name="circle-482"
      unicode="&#x1E2;"
      horiz-adv-x="200" d=" M100 200M50 200A50 50 0 1 1 150 200A50 50 0 1 1 50 200M100 200M140 200A40 40 0 1 0 60 200A40 40 0 1 0 140 200" />
    <glyph glyph-name="circle-483"
      unicode="&#x1E3;"
      horiz-adv-x="200" d=" M100 200M50 200A50 50 0 1 1 150 200A50 50 0 1 1 50 200M100 200M140 200A40 40 0 1 0 60 200A40 40 0 1 0 140 200" />
    <glyph glyph-name="circle-484"
      unicode="&#x1E4;"
      horiz-adv-x="200" d=" M100 200M50 200A50 50 0 1 1 150 200A50 50 0 1 1 50 200M100 200M140 200A40 40 0 1 0 60 200A40 40 0 1 0 140 200" />
    <glyph glyph-name="circle-485"
      unicode="&#x1E5;"
      horiz-adv-x="200" d=" M100 200M50 200A50 50 0 1 1 150 200A50 50 0 1 1 50 200M100 200M140 200A40 40 0 1 0 60 200A40 40 0 1 0 140 200" />
    <glyph glyph-name="circle-486"
      unicode="&#x1E6;"
      horiz-adv-x="200" d=" M100 200M50 200A50 50 0 1 1 150 200A50 50 0 1 1 50 200M100 200M140 200A40 40 0 1 0 60 200A40 40 0 1 0 140 200" />
    <glyph glyph-name="circle-487"
      unicode="&#x1E7;"
      horiz-adv-x="200" d=" M100 200M50 200A50 50 0 1 1 150 200A50 50 0 1 1 50 200M100 200M140 200A40 40 0 1 0 60 200A40 40 0 1 0 140 200" />
    <glyph glyph-name="circle-488"
      unicode="&#x1E8;"
      horiz-adv-x="200" d=" M100 200M50 200A50 50 0 1 1 150 200A50 50 0 1 1 50 200M100 200M140 200A40 40 0 1 0 60 200A40 40 0 1 0 140 200" />
    <glyph glyph-name="circle-489"
      unicode="&#x1E9;"
      horiz-adv-x="200" d=" M100 200M50 200A50 50 0 1 1 150 200A50 50 0 1 1 50 200M100 200M140 200A40 40 0 1 0 60 200A40 40 0 1 0 140 200" />
    <glyph glyph-name="circle-490"
      unicode="&#x1EA;"
      horiz-adv-x="200" d=" M100 200M50 200A50 50 0 1 1 150 200A50 50 0 1 1 50 200M100 200M140 200A40 40 0 1 0 60 200A40 40 0 1 0 140 200" />
    <glyph glyph-name="circle-491"
      unicode="&#x1EB;"
      horiz-adv-x="200" d=" M100 200M50 200A50 50 0 1 1 150 200A50 50 0 1 1 50 200M100 200M140 200A40 40 0 1 0 60 200A40 40 0 1 0 140 200" />
    <glyph glyph-name="circle-492"
      unicode="&#x1EC;"
      horiz-adv-x="200" d=" M100 200M50 200A50 50 0 1 1 150 200A50 50 0 1 1 50 200M100 200M140 200A40 40 0 1 0 60 200A40 40 0 1 0 140 200" />
    <glyph glyph-name="circle-493"
      unicode="&#x1ED;"
      horiz-adv-x="200" d=" M100 200M50 200A50 50 0 1 1 150 200A50 50 0 1 1 50 200M100 200M140 200A40 40 0 1 0 60 200A40 40 0 1 0 140 200" />
    <glyph glyph-name="circle-494"
      unicode="&#x1EE;"
      horiz-adv-x="200" d=" M100 200M50 200A50 50 0 1 1 150 200A50 50 0 1 1 50 200M100 200M140 200A40 40 0 1 0 60 200A40 40 0 1 0 140 200" />
    <glyph glyph-name="circle-495"
      unicode="&#x1EF;"
      horiz-adv-x="200" d=" M100 200M50 200A50 50 0 1 1 150 200A50 50 0 1 1 50 200M100 200M140 200A40 40 0 1 0 60 200A40 40 0 1 0 140 200" />
    <glyph glyph-name="circle-496"
      unicode="&#x1F0;"
      horiz-adv-x="200" d=" M100 200M50 200A50 50 0 1 1 150 200A50 50 0 1 1 50 200M100 200M140 200A40 40 0 1 0 60 200A40 40 0 1 0 140 200" />
    </font>
</defs>
</svg>
